Страховщик / Automata (Габе Ибаньес / Gabe Ibanez) [2014, фантастика, триллер, HDRip] Dub (iTunes Russia)

Ответить на тему
Статистика раздачи [Обновить пиров]
Размер:  606 MB   |    Зарегистрирован:  1 год 10 месяцев   |    Скачан:  0 раз

Полного источника не было: Никогда

 
   
 
 
 
Автор Сообщение

torrentc.info

Создавать темы 15-Фев-2017 09:50

[Цитировать]

Страховщик-«Ваше время подошло к концу. Наше только начинается»- Оригинальное Название: Automata
Год Выпуска: 2014 г.
Cтрана: Испания, Болгария
Жанр: фантастика, триллер
Продолжительность: 01:49:54-Перевод: Профессиональный (дублированный) [iTunes Russia]-Режиссер: Габе Ибаньес
В ролях: Антонио Бандерас, Биргитта Йорт Сёренсен, Мелани Гриффит, Дилан МакДермотт, Роберт Форстер, Тим МакИннерни, Энди Найман, Дэвид Райалл, Эндрю Тирнан, Криста Кэмпбелл-Описание:
Главным героем фильма — страховой агент компании по изготовлению роботов Жак Вокан, который обнаруживает, что изобретаемые роботы создаются не для эксплуатации, а для истребления.
-Автор рипа: lokomotiv23-Источник: BDRip 720p
Качество: HDRip
Формат файла: MP4
Видео кодек: H.264
Аудио кодек: AAC
Видео: MPEG-4 AVC Video (H.264) / 480x208 / 640 kbps / 23.976 fps / 40:17 / Main Profile 3.0
Аудио: AAC, 2 channels, 48 kHz, 128 kbps-

MediaInfo

General
Complete name                       : Страховщик.2014.HDRip.mp4
Format                              : MPEG-4
Format profile                      : Base Media
Codec ID                            : isom
File size                           : 606 MiB
Duration                            : 1h 49mn
Overall bit rate mode               : Variable
Overall bit rate                    : 771 Kbps
Encoded date                        : UTC 2014-10-30 01:56:20
Tagged date                         : UTC 2014-10-30 01:56:20
Video
ID                                  : 1
Format                              : AVC
Format/Info                         : Advanced Video Codec
Format profile                      : Main@L3.0
Format settings, CABAC              : Yes
Format settings, ReFrames           : 3 frames
Codec ID                            : avc1
Codec ID/Info                       : Advanced Video Coding
Duration                            : 1h 49mn
Bit rate                            : 640 Kbps
Maximum bit rate                    : 4 488 Kbps
Width                               : 480 pixels
Height                              : 208 pixels
Display aspect ratio                : 2.35:1
Frame rate mode                     : Constant
Frame rate                          : 23.976 fps
Color space                         : YUV
Chroma subsampling                  : 4:2:0
Bit depth                           : 8 bits
Scan type                           : Progressive
Bits/(Pixel*Frame)                  : 0.267
Stream size                         : 503 MiB (83%)
Writing library                     : x264 core 130 r2273 b3065e6
Encoding settings                   : cabac=1 / ref=3 / deblock=1:-1:0 / analyse=0x1:0x131 / me=umh / subme=10 / psy=1 / psy_rd=1.00:0.20 / mixed_ref=1 / me_range=16 / chroma_me=1 / trellis=2 / 8x8dct=0 / cqm=0 / deadzone=21,11 / fast_pskip=0 / chroma_qp_offset=-3 / threads=6 / lookahead_threads=1 / sliced_threads=0 / nr=0 / decimate=0 / interlaced=0 / bluray_compat=0 / constrained_intra=0 / bframes=3 / b_pyramid=0 / b_adapt=2 / b_bias=0 / direct=3 / weightb=1 / open_gop=0 / weightp=2 / keyint=250 / keyint_min=23 / scenecut=40 / intra_refresh=0 / rc_lookahead=60 / rc=2pass / mbtree=1 / bitrate=640 / ratetol=1.0 / qcomp=0.60 / qpmin=0 / qpmax=69 / qpstep=4 / cplxblur=20.0 / qblur=0.5 / ip_ratio=1.40 / aq=1:1.00
Encoded date                        : UTC 2014-10-30 01:56:20
Tagged date                         : UTC 2014-10-30 01:57:23
Audio
ID                                  : 2
Format                              : AAC
Format/Info                         : Advanced Audio Codec
Format profile                      : LC
Codec ID                            : 40
Duration                            : 1h 49mn
Bit rate mode                       : Variable
Bit rate                            : 127 Kbps
Maximum bit rate                    : 153 Kbps
Channel(s)                          : 2 channels
Channel positions                   : Front: L R
Sampling rate                       : 48.0 KHz
Compression mode                    : Lossy
Delay relative to video             : 83ms
Stream size                         : 100 MiB (17%)
Encoded date                        : UTC 2014-10-30 01:57:18
Tagged date                         : UTC 2014-10-30 01:57:23

-

Скриншоты




[torrentc.info]_torrent-4983423.torrent
Торрент: Зарегистрирован ·  [ 2017-02-15 09:42 ] ·  3959ab6b847c5d6ae93f82fcfea6521cb70524a6

12 KB

Статус: проверено
Скачан: 0 раз
Размер: 606 MB
Оценка: 
(Голосов: 0)
Сказали спасибо: 0  Спасибо
Похожие темы
[Профиль]    [ЛС]
Показать сообщения:    
Ответить на тему

Текущее время: Сегодня 08:28

Часовой пояс: GMT + 7



Вы не можете начинать темы
Вы не можете отвечать на сообщения
Вы не можете редактировать свои сообщения
Вы не можете удалять свои сообщения
Вы не можете голосовать в опросах
Вы не можете прикреплять файлы к сообщениям
Вы можете скачивать файлы