Новые приключения Скуби и Скреппи / The New Scooby and Scrappy-Doo Show / Сезон: 1 / Серии: 1 - 26 из 26 (Рэй Паттерсон / Rej Patterson) [1983, Приключения, Комедия, DVB] Dub

Ответить на тему
Статистика раздачи [Обновить пиров]
Размер:  8.18 GB   |    Зарегистрирован:  1 год 7 месяцев   |    Скачан:  0 раз

Полного источника не было: Никогда

 
   
 
 
 
Автор Сообщение

torrentc.info

Создавать темы 12-Мар-2017 13:00

[Цитировать]

The New Scooby and Scrappy-Doo Show / Новые приключения Скуби и Скреппи
Страна: США
Жанр: Приключения, Комедия
Продолжительность: 00:22:00
Год выхода: 1983
Перевод: Профессиональный (дублированный)
Русские субтитры: нет
Режиссёр: Рэй Паттерсон / Rej Patterson
Описание: Очаровательный и смешной пес по кличке Скуби Ду вместе со своим хозяином Шеги и друзьями: Вельмой, Дафни и Фредди постоянно попадают в удивительные приключения. Они расследуют мистические случаи похищения людей и собак, связанные с призраками, заброшенными замками и затерянными сокровищами. И не смотря на то, что Скуби Ду ужасно боится привидений, и думает исключительно о сухариках и собачьих консервах, он всегда оказывается победителем и успешно распутывает все эти загадочные происшествия.

Список серий:

01. «Скуби Варвар» / «Scooby the Barbarian»
02. «Акул нет» / «No Sharking Zone»
03. «Скубигейст» / «Scoobygeist»
04. «Искусственное землетрясение» / «The Quagmire Quake Caper»
05. «Собака Скубивиллей» / «The Hound of the Scoobyvilles»
06. «Несуществующий динозавр» / «The Dinosaur Deception»
07. «Жуть из химической лаборатории» / «The Creature from the Chem Lab»
08. «Кража на маскараде» / «No Thanks Masked Manx»
09. «Скуби в джунглях» / «Scooby of the Jungle»
10. «Скуби-Ду и Циклоп» / «Scooby-Doo and Cyclops, Too»
11. «Скуби-Ру» / «Scooby-Roo»
12. «Скуби и погоня за золотой медалью» / «Scooby’s Gold Medal Gambit»
13. «Колдуны и ведьмы» / «Wizards and Warlocks»
14. «Скубси» / «Scoobsie»
15. «Знак Скуби» / «The Mark of Scooby»
16. «Грабеж на карнавале» / «Crazy Carnival Caper»
17. «Скуби и Минотавр» / «Scooby and the Minotaur»
18. «Скуби бейсболист» / «Scooby Pinch Hits»
19. «Падение пса» / «The Fall Dog»
20. «Кубок Скуби» / «The Scooby Coupe»
21. «Кому мешает чудовище ?» / «Who’s Minding the Monster?»
22. «Скуби а-ля Сластена» / «Scooby a La Mode»
23. «Где Скуби-Ду?», Часть 1 / «Where’s Scooby Doo?», Part 1
24. «Где Скуби-Ду?», Часть 2 / «Where’s Scooby-Doo?», Part 2
25. «Свадебные колокола», Часть 1 / «Wedding Bell Boos», Part 1
26. «Свадебные колокола», Часть 2 / «Wedding Bell Boos», Part 2

Доп. информация: Выражаем благодарность Pah'OK за запись серий


[url=tracker.php?f=1991&nm=The+New+Scooby+and+Scrappy-Doo+Show]Ссылка на предыдущие и альтернативные раздачи[/url]
Качество: DVB
Формат файла: mpg
Видео: MPEG2 Video 720x576 (4:3) 25.00fps 3 584 Kbps
Аудио: MPEG Audio 48000Hz stereo 256kbps
Субтитры: отсутствуют

Подробные технические данные

GeneralComplete name : C:\The New Scooby and Scrappy-Doo Show\S01 ep 01 Scooby the Barbarian - No Sharking Zone.mpgFormat : MPEG-PSFile size : 644 MiBDuration : 22mn 58sOverall bit rate mode : VariableOverall bit rate : 3 918 KbpsWriting library : (c) 1998-2011 Womble Multimedia, Inc. / MPEG Video Wizard DVD 5.0.1.100 (03/2011) / Dec 19 2011
VideoID : 224 (0xE0)Format : MPEG VideoFormat version : Version 2Format profile : Main@MainFormat settings, BVOP : YesFormat settings, Matrix : CustomFormat settings, GOP : M=3, N=6Duration : 22mn 58sBit rate mode : VariableBit rate : 3 584 KbpsMaximum bit rate : 15.0 MbpsWidth : 720 pixelsHeight : 576 pixelsDisplay aspect ratio : 4:3Frame rate : 25.000 fpsStandard : PALColor space : YUVChroma subsampling : 4:2:0Bit depth : 8 bitsScan type : InterlacedScan order : Top Field FirstCompression mode : LossyBits/(Pixel*Frame) : 0.346Stream size : 589 MiB (91%)Writing library : (c) 1998-2011 Womble Multimedia, Inc. / MPEG Video Wizard DVD 5.0.1.100 (03/2011) / Dec 19 2011
AudioID : 192 (0xC0)Format : MPEG AudioFormat version : Version 1Format profile : Layer 2Duration : 22mn 58sBit rate mode : ConstantBit rate : 256 KbpsChannel(s) : 2 channelsSampling rate : 48.0 KHzCompression mode : LossyStream size : 42.1 MiB (7%)
Menu

Скриншоты



[torrentc.info]_t_4080371.torrent
Торрент: Зарегистрирован ·  [ 2017-03-12 13:00 ] ·  cc799cd11db340ea7569ba183502f69de3ea5738

42 KB

Статус: проверено
Скачан: 0 раз
Размер: 8.18 GB
Оценка: 
(Голосов: 0)
Сказали спасибо: 0  Спасибо
Похожие темы
[Профиль]    [ЛС]
Показать сообщения:    
Ответить на тему

Текущее время: Сегодня 00:48

Часовой пояс: GMT + 7



Вы не можете начинать темы
Вы не можете отвечать на сообщения
Вы не можете редактировать свои сообщения
Вы не можете удалять свои сообщения
Вы не можете голосовать в опросах
Вы не можете прикреплять файлы к сообщениям
Вы можете скачивать файлы