Шоу Скуби-Ду / The Scooby-Doo Show / Сезоны: 1-3 / Серии: 1, 4-13, 15-40 из 40 (Джозеф Барбера, Уильям Ханна / Joseph Barbera, William Hanna) [1976-1978, Приключение, Комедия, DVB] Dub (СТС)

Ответить на тему
Статистика раздачи [Обновить пиров]
Размер:  38.34 GB   |    Зарегистрирован:  1 год 7 месяцев   |    Скачан:  0 раз

Полного источника не было: Никогда

 
   
 
 
 
Автор Сообщение

torrentc.info

Создавать темы 12-Мар-2017 13:00

[Цитировать]

Шоу Скуби-Ду / The Scooby-Doo Show Страна: США
Жанр: Приключение, Комедия
Продолжительность: 00:24:21
Год выхода: 1976-1978
Перевод: Профессиональный (дублированный)
Русские субтитры: нет
Режиссёр: Джозеф Барбера, Уильям Ханна / Joseph Barbera, William Hanna
Роли озвучивали: Дон Мессик, Кэйси Касэм, Фрэнк Уэлкер, Николь Джаффе, Stefanianna Christopherson, Вик Перрин, Хэл Смит, Джон Стефенсон, Jean Vander Pyl, Хезер Норт и др.
Описание: Сюжет мультипликационного сериала «Шоу Скуби-Ду»: главный герой бездомный пес по кличке Скуби-Ду, наконец-то, случайно знакомится с парнем по имени Шегги, который является таким же «отморозком», как и сам Скуби-Ду. А вот тут и начинаются самые невероятные приключения этой парочки. Вы готовы увидеть кучу существ не из нашего мира? Скуби распознает их на раз! И лучше с ними не связываться, потому что, ни к чему хорошему это не приведёт и даже верные друзья не будут в силе тебе помочь…
Ссылка на предыдущие и альтернативные раздачи: [url=tracker.php?nm=The%20Scooby-Doo%20Show]http://torrentc/forum/tracker.php?nm=The%20Scooby-Doo%20Show[/url]
Семпл: http://multi-up.com/804602
Качество: DVB
Формат файла: MPG
Видео: MPEG2, 720x576, 25.000 fps, 6.090 Kbps
Аудио: MP2, 48.0 KHz, 2 ch, 192 Kbps
Субтитры: Отсутствуют

Список серий

Сезон 1:
01. Крутой подъем, высокий рельеф
04. Страшное привидение
05. Обезглавленный наездник в Хеллоуин
06. Страшный жребий Камелота
07. Санаторий Харум Скарум
08. Безликий Зомби с ворованным кейсом
09. Мамба Вамба и Вуду Худу
10. Тревожные гончие или знакомство с подземным демоном
11. Бродяго Скуби
12. Акула-демон в туманной мгле
13. Скуби-Ду где твой экипаж
15. Призрак плохого юмориста
16. Духи номера 76
Сезон 2:
01. Проклятие озера Викингов
02. Вампиры, летучие мыши и закалдованые коты
03. Главенствуй Скуби-Ду
04. Леденящий душу триллер
05. Страшный случай, произошедший на больших гонках
06. Ведьма, меняющая обличия
07. Странный круиз
08. Страшная нечисть из бездны
Сезон 3:
01. Берегись! Виллавау
02. Уголовники в Бермудском Треугольнике
03. Страшная встреча со снежным зверем
04. Охота на ведьм
05. Гудроновое чудище
06. Столкновение в горах с огромным чудовищем
07. Тёмные дела Железного Лица
08. Берегись, это Ягуаро
09. Кошачья хитрость коварного похитителя
10. Страшный случай в ботаническом саду
11. Демон-добытчик дисков
12. Приключение Скуби в Китае
13. Приключение в Венеции
14. Не приближайтесь к крепости страха
15. Колдун Уимблдона
16. Чудовище бездонного озера

Внимание! Раздача ведётся путём добавления новых серий

Внимание! Раздача ведётся путём добавления новых серий; при каждом добавлении создаётся новый торрент. Чтобы начать докачку новой серии, пользователям необходимо сделать следующее:
(1) остановить скачивание,
(2) удалить старый торрент у себя из клиента (старые серии удалять не надо),
(3) скачать новый торрент и запустить его у себя в клиенте вместо старого, при этом указать клиенту путь в старую папку куда и должно происходить скачивание новых серий.
Ваш клиент при этом должен произвести хеширование (проверку) старой папки (если не производит сам - помогите ему сделать это), и будет докачивать только те серии которых у вас ещё нет. Старые серии при этом не удаляются, а продолжают раздаваться!
Eсли вы уже удалили старые серии, то предотвратить повторную закачку старых серий можно, отжав галочку в соответствующих местах при запуске нового торрента. По возможности, желательно не удалять старые серии как можно дольше чтобы релизёр не столько продолжал раздавать старые серии, а смог сконцентрироваться на новых.

Подробные технические данные

GeneralComplete name : D:\IPTV\The Scooby-Doo Show\The Scooby-Doo Show.s01.e04.mpgFormat : MPEG-PSFile size : 1.09 GiBDuration : 24mn 14sOverall bit rate mode : VariableOverall bit rate : 6 410 Kbps
VideoID : 224 (0xE0)Format : MPEG VideoFormat version : Version 2Format profile : Main@MainFormat settings, BVOP : YesFormat settings, Matrix : CustomFormat settings, GOP : N=3Duration : 24mn 14sBit rate mode : VariableBit rate : 6 090 KbpsMaximum bit rate : 15.0 MbpsWidth : 720 pixelsHeight : 576 pixelsDisplay aspect ratio : 4:3Frame rate : 25.000 fpsStandard : PALColor space : YUVChroma subsampling : 4:2:0Bit depth : 8 bitsScan type : InterlacedScan order : Top Field FirstCompression mode : LossyBits/(Pixel*Frame) : 0.587Stream size : 1.03 GiB (95%)
AudioID : 192 (0xC0)Format : MPEG AudioFormat version : Version 1Format profile : Layer 2Duration : 24mn 14sBit rate mode : ConstantBit rate : 192 KbpsChannel(s) : 2 channelsSampling rate : 48.0 KHzCompression mode : LossyDelay relative to video : 6msStream size : 33.3 MiB (3%)

Скриншоты



[torrentc.info]_t_4285450.torrent
Торрент: Зарегистрирован ·  [ 2017-03-12 13:00 ] ·  9bac65bfd06043b4a9ef18736b132c1d66189abd

194 KB

Статус: проверено
Скачан: 0 раз
Размер: 38.34 GB
Оценка: 
(Голосов: 0)
Сказали спасибо: 0  Спасибо
Похожие темы
[Профиль]    [ЛС]
Показать сообщения:    
Ответить на тему

Текущее время: Сегодня 00:37

Часовой пояс: GMT + 7



Вы не можете начинать темы
Вы не можете отвечать на сообщения
Вы не можете редактировать свои сообщения
Вы не можете удалять свои сообщения
Вы не можете голосовать в опросах
Вы не можете прикреплять файлы к сообщениям
Вы можете скачивать файлы