Скуби-Ду! Корпорация "Тайна" / Scooby-Doo! Mystery Incorporated / Сезон: 1 / Серии: 1-5, 7, 8, 10-20, 22-26 из 26 (Курт Геда / Curt Geda) [2010-2011, Мультипликация, DVB] Dub (СТС)

Ответить на тему
Статистика раздачи [Обновить пиров]
Размер:  18.9 GB   |    Зарегистрирован:  1 год 5 месяцев   |    Скачан:  0 раз

Полного источника не было: Никогда

 
   
 
 
 
Автор Сообщение

torrentc.info

Создавать темы 12-Мар-2017 13:00

[Цитировать]

Скуби-Ду! Корпорация "Тайна" / Scooby-Doo! Mystery Incorporated Страна: США
Жанр: Мультипликация
Продолжительность: 00:22:09
Год выхода: 2010-2011
Перевод:
Профессиональный (дублированный):
1. "Объединение Русский Дубляж" (Серии 1-5, 7, 8, 10-15) по заказу СТС в 2011-м году
2. "Пифагор" (Серии 16-20, 22-26) по заказу Уорнер Бразерс в 2011-м году
Русские субтитры: нет
Режиссёр: Курт Геда / Curt Geda
Роли озвучивали: Мэттью Лиллард, Фрэнк Уэлкер, Кейси Касем, Грей Делайл, Минди Кон, Патрик Уорбертон
Описание: В этом новом мультипликационном сериале Скуби-Ду и его команда - Шегги, Фред, Дафна и Велма пытаются рагадать тайны города Хрустальная Бухта, города со свой историей, полной жутких сверхъестественных событий.
Доп. информация: В этой раздаче, в отличии от остальных, представлен дубляж от телеканала СТС
Ссылка на предыдущие и альтернативные раздачи: [url=tracker.php?&nm=Scooby+Doo+Mystery+Incorporated]http://torrentc/forum/tracker.php?&nm=Scooby+Do...corporated[/url]
Семпл: http://multi-up.com/824834
Качество: DVB
Формат файла: MPG
Субтитры: Отсутствуют

Видео

Серии 1-5, 15-20, 25, 26:
MPEG2, 720x576, 25.000 fps, 6.091 Kbps
Остальные серии:
MPEG2, 720x576, 25.000 fps, 3.971 Kbps

Аудио

Серии 1-5, 15-20, 25, 26:
MP2, 48.0 KHz, 2 ch, 192 Kbps
Остальные серии:
MP2, 44.1 KHz, 2 ch, 256 Kbps

Список серий

Сезон 1:
01. Остерегайтесь зверя из присподний
02. Ползучие существа
03. Тайна грузовика-призрака
04. Месть человека-краба
05. Загадочная песня
07. В страхе перед фантомом
08. Хватка гнома
10. Вой страшного пса
11. Волшебное зелье
12. Кричащее безумие
13. Когда звенят цикады
14. Клуб раскрывателей тайн
15. Дикая стая
16. Где гуляет Афродита
17. Исчезновение таинственного особняка
18. Секрет дракона
19. Ночной кошмар
20. Песня Сирены
22. Нападение безголового монстра
23. Охота на призраков в кристальной пещере
24. Судья с того света
25. Заложник теней
26. Все боятся Фрика

Внимание! Раздача ведётся путём добавления новых серий

Внимание! Раздача ведётся путём добавления новых серий; при каждом добавлении создаётся новый торрент. Чтобы начать докачку новой серии, пользователям необходимо сделать следующее:
(1) остановить скачивание,
(2) удалить старый торрент у себя из клиента (старые серии удалять не надо),
(3) скачать новый торрент и запустить его у себя в клиенте вместо старого, при этом указать клиенту путь в старую папку куда и должно происходить скачивание новых серий.
Ваш клиент при этом должен произвести хеширование (проверку) старой папки (если не производит сам - помогите ему сделать это), и будет докачивать только те серии которых у вас ещё нет. Старые серии при этом не удаляются, а продолжают раздаваться!
Eсли вы уже удалили старые серии, то предотвратить повторную закачку старых серий можно, отжав галочку в соответствующих местах при запуске нового торрента. По возможности, желательно не удалять старые серии как можно дольше чтобы релизёр не столько продолжал раздавать старые серии, а смог сконцентрироваться на новых.

Подробные технические данные (Серии 1-5, 15-20, 25, 26)

GeneralComplete name : D:\IPTV\Scooby-Doo! Mystery Incorporated\Scooby-Doo! Mystery Incorporated.s01.e01.mpgFormat : MPEG-PSFile size : 1 016 MiBDuration : 22mn 10sOverall bit rate mode : VariableOverall bit rate : 6 411 Kbps
VideoID : 224 (0xE0)Format : MPEG VideoFormat version : Version 2Format profile : Main@MainFormat settings, BVOP : YesFormat settings, Matrix : CustomFormat settings, GOP : VariableDuration : 22mn 10sBit rate mode : VariableBit rate : 6 091 KbpsMaximum bit rate : 15.0 MbpsWidth : 720 pixelsHeight : 576 pixelsDisplay aspect ratio : 4:3Frame rate : 25.000 fpsStandard : PALColor space : YUVChroma subsampling : 4:2:0Bit depth : 8 bitsScan type : InterlacedScan order : Top Field FirstCompression mode : LossyBits/(Pixel*Frame) : 0.587Stream size : 966 MiB (95%)
AudioID : 192 (0xC0)Format : MPEG AudioFormat version : Version 1Format profile : Layer 2Duration : 22mn 10sBit rate mode : ConstantBit rate : 192 KbpsChannel(s) : 2 channelsSampling rate : 48.0 KHzCompression mode : LossyDelay relative to video : -2msStream size : 30.4 MiB (3%)

Подробные технические данные (Остальные серии)

GeneralComplete name : D:\IPTV\Scooby-Doo! Mystery Incorporated\Scooby-Doo! Mystery Incorporated.s01.e07.mpgFormat : MPEG-PSFile size : 665 MiBDuration : 21mn 41sOverall bit rate mode : VariableOverall bit rate : 4 288 Kbps
VideoID : 224 (0xE0)Format : MPEG VideoFormat version : Version 2Format profile : Main@MainFormat settings, BVOP : YesFormat settings, Matrix : CustomFormat settings, GOP : M=3, N=24Duration : 21mn 41sBit rate mode : VariableBit rate : 3 971 KbpsWidth : 720 pixelsHeight : 576 pixelsDisplay aspect ratio : 4:3Frame rate : 25.000 fpsStandard : PALColor space : YUVChroma subsampling : 4:2:0Bit depth : 8 bitsScan type : InterlacedScan order : Top Field FirstCompression mode : LossyBits/(Pixel*Frame) : 0.383Stream size : 612 MiB (92%)
AudioID : 192 (0xC0)Format : MPEG AudioFormat version : Version 1Format profile : Layer 2Duration : 21mn 40sBit rate mode : ConstantBit rate : 256 KbpsChannel(s) : 2 channelsSampling rate : 44.1 KHzCompression mode : LossyDelay relative to video : 2msStream size : 39.7 MiB (6%)

Скриншоты



[torrentc.info]_t_4334320.torrent
Торрент: Зарегистрирован ·  [ 2017-03-12 13:00 ] ·  78845d4a26fd9c6f5e532d22a05d616b7be0ab42

97 KB

Статус: проверено
Скачан: 0 раз
Размер: 18.9 GB
Оценка: 
(Голосов: 0)
Сказали спасибо: 0  Спасибо
Похожие темы
[Профиль]    [ЛС]
Показать сообщения:    
Ответить на тему

Текущее время: Сегодня 00:17

Часовой пояс: GMT + 7



Вы не можете начинать темы
Вы не можете отвечать на сообщения
Вы не можете редактировать свои сообщения
Вы не можете удалять свои сообщения
Вы не можете голосовать в опросах
Вы не можете прикреплять файлы к сообщениям
Вы можете скачивать файлы