Скуби-Ду! Корпорация "Тайна" / Scooby-Doo! Mystery Incorporated / Сезон: 1 / Серии: 26 из 26 (Курт Геда / Curt Geda) [2010, Мультипликация, WEB-DL 1080p] 2хDUB

Ответить на тему
Статистика раздачи [Обновить пиров]
Размер:  21.82 GB   |    Зарегистрирован:  1 год 7 месяцев   |    Скачан:  0 раз

Полного источника не было: Никогда

Личеров:  3  [  0 KB/s  ]   Подробная статистика скачивающих
 
   
 
 
 
Автор Сообщение

torrentc.info

Создавать темы 12-Мар-2017 13:00

[Цитировать]

Скуби-Ду! Корпорация "Тайна" / Scooby-Doo! Mystery Incorporated
Страна: США
Жанр: Мультипликация
Серии (количество): 26 из 26
Продолжительность: ~22 мин
Год выхода: 2010-11
Перевод 1: Профессиональный (Дублированный) "Пифагор" по заказу WB 1-26 серия
Перевод 2: Профессиональный (Дублированный) "Объединение Русский Дубляж" по заказу СТС 1-15 серия
Оригинальная аудиодорожка: Английская
Русские субтитры: нет-Режиссёр: Курт Геда / Curt Geda
Роли озвучивали: Мэттью Лиллард, Фрэнк Уэлкер, Кейси Касем, Грей Делайл, Минди Кон, Патрик Уорбертон
Описание: В этом новом мультипликационном сериале Скуби-Ду и его команда - Шегги, Фред, Дафна и Велма пытаются рагадать тайны города Кристальная Бухта, города со свой историей, полной жутких сверхъестественных событий.- --Благодарности:
Дубляж "Пифагор" предоставлен Колей Чешским,
Дубляж "Объединение Русский Дубляж" предоставлен Lexa1988-L1
Видео предоставлено Happy merchant-Качество: WEB-DL
Формат файла: MKV
Видео: AVC, 1920x1080 (16:9), 23.976 fps, 4 707 Kbps (0.095 bit/pixel)
Аудио 1: Russian / 2.0 / 192 Кбит/сек / 48 kHz (Дубляж "Пифагор")
Аудио 2: Russian / 2.0 / 192 Кбит/сек / 48 kHz (Дубляж "Объединение Русский Дубляж")
Аудио 3: English / 2.0 / 192 Кбит/сек / 48 kHz (Оригинал)
Субтитры: нет
Семпл: Забираем здесь

Список серий:

01 - Бойтесь чудовища из подземелья / (Beware the Beast from Below)
02 - Ужасные чудовища / (The Creeping Creatures)
03 - Секрет грузовика-призрака / (The Secret of the Ghost Rig)
04 - Месть Человека-Краба / (Revenge of The Man Crab)
05 - Мистическая мелодия / (The Song of Mystery)
06 - Легенда об Элис Мей / (The Legend of Alice May)
07 - В страхе от фантома / (In Fear of The Phantom)
08 - Во власти гнома / (The Grasp Of the Gnome)
09 - Битва Человеконавтов / (Battle Of The Humangonauts)
10 - Вой страшного пса / (Howl of The Fright Hound)
11 - Секретная сыворотка / (The Secret Serum)
12 - Пронзительное сумасшествие / (Shrieking Madness)
13 - Когда Цикады зовут / (When The Cicada Calls)
14 - Финал конкурса детективов / (Mystery Solvers Club State Finals)
15 - Дикая Стая / (Wild Brood)
16 - Где гуляет Афродита / (Where Walks Aphrodite)
17 - Исчезновение таинственного особняка / (Escape From Mystery Manor)
18 - Секрет Дракона / (The Dragon's Secret)
19 - Ночной кошмар / (Nightfright)
20 - Песня сирены / (The Siren's Song)
21 - Опасная Мантикора / (Menace of the Manticore)
22 - Нападение безголового монстра / (Attack of the Headless Horror)
23 - Охота на призраков в Кристальной пещере / (A Haunting in Crystal Cove)
24 - Cудья с того света / (Dead Justice)
25 - Заложник теней / (Pawn of Shadows)
26 - Все боятся Фрика / ( All Fear The Freak)

Подробные технические данные

Общее
Уникальный идентификатор : 188913533474236787128679011778093457408 (0x8E1F6C506658157FA60D19B3AB712000)
Полное имя :S01E08 - The Grasp of the Gnome 1080p.mkv
Формат файла : Matroska
Версия формата : Version 4 / Version 2
Размер файла : 936 Мбайт
Продолжительность : 22 м.
Общий поток : 5745 Кбит/сек
Дата кодирования : UTC 2014-02-13 10:41:49
Программа кодирования : mkvmerge v6.7.0 ('Back to the Ground') 32bit built on Jan 8 2014 15:03:17
Библиотека кодирования : libebml v1.3.0 + libmatroska v1.4.1
Видео
Идентификатор : 1
Формат файла : AVC
Формат файла/Информация : Advanced Video Codec
Профиль формата : High@L4.0
Параметр CABAC формата : Да
Параметр ReFrames формата : 4 кадра
Идентификатор кодека : V_MPEG4/ISO/AVC
Продолжительность : 22 м.
Битрейт : 5054 Кбит/сек
Ширина : 1920 пикселей
Высота : 1080 пикселей
Соотношение сторон : 16:9
Режим частоты кадров : Постоянный
Частота кадров : 23,976 кадра/сек
Цветовое пространство : YUV
Субдискретизация насыщенности : 4:2:0
Битовая глубина : 8 бит
Тип развёртки : Прогрессивная
Бит/(Пиксели*Кадры) : 0.102
Размер потока : 823 Мбайт (88%)
Язык : English
Default : Да
Forced : Нет
Основные цвета : BT.709
Характеристики трансфера : BT.709
Коэффициенты матрицы : BT.709
Аудио #1
Идентификатор : 2
Формат файла : AC-3
Формат файла/Информация : Audio Coding 3
Расширение режима : CM (complete main)
Параметр Endianness формата : Big
Идентификатор кодека : A_AC3
Продолжительность : 22 м.
Вид битрейта : Постоянный
Битрейт : 192 Кбит/сек
Каналы : 2 канала
Расположение каналов : Front: L R
Частота : 48,0 КГц
Битовая глубина : 16 бит
Метод сжатия : С потерями
Размер потока : 31,3 Мбайт (3%)
Заголовок : Дубляж "Пифагор"
Язык : Russian
Default : Да
Forced : Нет
Аудио #2
Идентификатор : 3
Формат файла : AC-3
Формат файла/Информация : Audio Coding 3
Расширение режима : CM (complete main)
Параметр Endianness формата : Big
Идентификатор кодека : A_AC3
Продолжительность : 22 м.
Вид битрейта : Постоянный
Битрейт : 192 Кбит/сек
Каналы : 2 канала
Расположение каналов : Front: L R
Частота : 48,0 КГц
Битовая глубина : 16 бит
Метод сжатия : С потерями
Размер потока : 31,3 Мбайт (3%)
Заголовок : Дубляж "Объединение Русский Дубляж"
Язык : Russian
Default : Нет
Forced : Нет
Аудио #3
Идентификатор : 4
Формат файла : AC-3
Формат файла/Информация : Audio Coding 3
Расширение режима : CM (complete main)
Параметр Endianness формата : Big
Идентификатор кодека : A_AC3
Продолжительность : 22 м.
Вид битрейта : Постоянный
Битрейт : 192 Кбит/сек
Каналы : 2 канала
Расположение каналов : Front: L R
Частота : 48,0 КГц
Битовая глубина : 16 бит
Метод сжатия : С потерями
Размер потока : 31,3 Мбайт (3%)
Язык : English
Default : Нет
Forced : Нет

Скриншоты



Внимание! Раздача ведется путем добавления новых серий

Внимание! Раздача ведётся путём добавления новых серий; при каждом добавлении создётся новый торрент. Чтобы начать докачку новой серии, пользователям необходимо сделать следующее:
(1) остановить скачивание,
(2) удалить старый торрент у себя из клиента (старые серии удалять не надо),
(3) скачать новый торрент и запустить его у себя в клиенте вместо старого, при этом указать клиенту путь в старую папку куда и должно происходить скачивание новых серий.
Ваш клиент при этом должен произвести хеширование (проверку) старой папки (если не производит сам - помогите ему сделать это), и будет докачивать только те серии которых у вас ещё нет. Старые серии при этом не удаляются, а продолжают раздаваться!
Eсли вы уже удалили старые серии, то предотвратить повторную закачку старых серий можно, отжав галочку в соответсвующих местах при запуске нового торрента. По возможности, желательно не удалять старые серии как можно дольше чтобы релизёр не столько продолжал раздавать старые серии, а смог сконцентрироваться на новых.

Ссылка на предыдущие и альтернативные раздачи

[url=tracker.php?&nm=Scooby+Doo+Mystery+Incorporated]Тут[/url]


[torrentc.info]_t_4189117.torrent
Торрент: Зарегистрирован ·  [ 2017-03-12 13:00 ] ·  cd4de7712fc36d5abfd1aa2633afa26cefe39e1c

111 KB

Статус: проверено
Скачан: 0 раз
Размер: 21.82 GB
Оценка: 
(Голосов: 0)
Сказали спасибо: 0  Спасибо
Похожие темы
[Профиль]    [ЛС]
Показать сообщения:    
Ответить на тему

Текущее время: Сегодня 12:49

Часовой пояс: GMT + 7



Вы не можете начинать темы
Вы не можете отвечать на сообщения
Вы не можете редактировать свои сообщения
Вы не можете удалять свои сообщения
Вы не можете голосовать в опросах
Вы не можете прикреплять файлы к сообщениям
Вы можете скачивать файлы