Скуби-Ду! И Страшное Пугало / Scooby-Doo! And the Spooky Scarecrow (Виктор Кук / Victor Cook) [2013, Ужасы, Детектив, Комедия, HDTV 1080i] MVO + Original Eng + Sub (Rus, Eng)

Ответить на тему
Статистика раздачи [Обновить пиров]
Размер:  650 MB   |    Зарегистрирован:  1 год 2 месяца   |    Скачан:  0 раз

Полного источника не было: Никогда

Личеров:  1  [  0 KB/s  ]   Подробная статистика скачивающих
 
   
 
 
 
Автор Сообщение

torrentc.info

Создавать темы 12-Мар-2017 13:00

[Цитировать]

Скуби-Ду! И Страшное Пугало / Scooby-Doo! And the Spooky Scarecrow
Страна: США
Жанр: Ужасы, Детектив, Комедия
Продолжительность: 00:21:36
Год выхода: 2013
Перевод: Профессиональный (многоголосый закадровый) - с DVD R5 от "СР-Дистрибуция"
Русские субтитры: есть
Главы: есть, 5 шт-Режиссёр: Виктор Кук / Victor Cook
Описание: Скуби и его команда охотников за привидениями приезжают на тихую ферму. Жители готовятся и празднику Хэллоуин, но не все в деревне тихо и спокойно. На местном кукурузном поле появляется пугало, которое оживила ведьма! Смогут ли наши вечноголодные герои оторваться от накрытого стола, чтобы решить зту загадку?-Качество: HDTV 1080i
Формат файла: MKV
Видео: MPEG-4 AVC | 1920x1080 | 25.000 fps | 3732 kbps
Аудио 1: RUS | AC-3 | 48.0 kHz | 2 ch | 192 kbps
Аудио 2: ENG | AC-3 | 48.0 kHz | 2 ch | 192 kbps
Субтитры 1: RUS | SRT | UTF-8
Субтитры 2: ENG | SRT | UTF-8
Семпл

Подробные технические данные

GeneralUnique ID : 242822536667195950372795025890611258190 (0xB6ADEB6155632B5EA1E9E291532F634E)Complete name : D:\РАЗДАЧА\2013 Scooby-Doo! And the Spooky Scarecrow HDTV 1080i [MVO DVD R5] [ENG] {RUS} {ENG} (CHP).mkvFormat : MatroskaFormat version : Version 4 / Version 2File size : 650 MiBDuration : 21mn 38sOverall bit rate : 4 200 KbpsMovie name : Scooby-Doo! And the Spooky ScarecrowEncoded date : UTC 2015-01-30 10:55:18Writing application : mkvmerge v7.5.0 ('Glass Culture') 64bit built on Jan 4 2015 16:48:44Writing library : libebml v1.3.1 + libmatroska v1.4.2Attachements : cover.png
VideoID : 1Format : AVCFormat/Info : Advanced Video CodecFormat profile : High@L4.0Format settings, CABAC : YesFormat settings, ReFrames : 3 framesCodec ID : V_MPEG4/ISO/AVCDuration : 21mn 38sBit rate : 3 732 KbpsWidth : 1 920 pixelsHeight : 1 080 pixelsDisplay aspect ratio : 16:9Frame rate mode : ConstantFrame rate : 25.000 fpsStandard : ComponentColor space : YUVChroma subsampling : 4:2:0Bit depth : 8 bitsScan type : InterlacedScan order : Top Field FirstBits/(Pixel*Frame) : 0.072Stream size : 578 MiB (89%)Language : PolishDefault : YesForced : NoColor primaries : BT.709Transfer characteristics : BT.709Matrix coefficients : BT.709Color range : Limited
Audio #1ID : 2Format : AC-3Format/Info : Audio Coding 3Mode extension : CM (complete main)Format settings, Endianness : BigCodec ID : A_AC3Duration : 21mn 38sBit rate mode : ConstantBit rate : 192 KbpsChannel(s) : 2 channelsChannel positions : Front: L RSampling rate : 48.0 KHzBit depth : 16 bitsCompression mode : LossyStream size : 29.7 MiB (5%)Title : MVO DVD R5Language : RussianDefault : YesForced : No
Audio #2ID : 3Format : AC-3Format/Info : Audio Coding 3Mode extension : CM (complete main)Format settings, Endianness : BigCodec ID : A_AC3Duration : 21mn 38sBit rate mode : ConstantBit rate : 192 KbpsChannel(s) : 2 channelsChannel positions : Front: L RSampling rate : 48.0 KHzBit depth : 16 bitsCompression mode : LossyStream size : 29.7 MiB (5%)Language : EnglishDefault : NoForced : No
Text #1ID : 4Format : UTF-8Codec ID : S_TEXT/UTF8Codec ID/Info : UTF-8 Plain TextLanguage : RussianDefault : NoForced : No
Text #2ID : 5Format : UTF-8Codec ID : S_TEXT/UTF8Codec ID/Info : UTF-8 Plain TextLanguage : EnglishDefault : NoForced : No
Menu00:00:00.000 : Chapter 0100:01:32.700 : Chapter 0200:06:35.760 : Chapter 0300:12:35.000 : Chapter 0400:21:06.600 : Chapter 05

Скриншоты



[torrentc.info]_t_4927640.torrent
Торрент: Зарегистрирован ·  [ 2017-03-12 13:00 ] ·  cabc5a1239b7fdfca0075b9c73180463a288bb0e

13 KB

Статус: проверено
Скачан: 0 раз
Размер: 650 MB
Оценка: 
(Голосов: 0)
Сказали спасибо: 0  Спасибо
Похожие темы
[Профиль]    [ЛС]
Показать сообщения:    
Ответить на тему

Текущее время: Сегодня 21:01

Часовой пояс: GMT + 7



Вы не можете начинать темы
Вы не можете отвечать на сообщения
Вы не можете редактировать свои сообщения
Вы не можете удалять свои сообщения
Вы не можете голосовать в опросах
Вы не можете прикреплять файлы к сообщениям
Вы можете скачивать файлы