Новые фильмы о Скуби-Ду / The New Scooby-Doo Movies / Сезон: 2 / Серии: 1-8 из 8 (Hanna-Barbera / Ханна-Барбера) [1973, Мультипликация, DVDRip] Dub + MVO

Ответить на тему
Статистика раздачи [Обновить пиров]
Размер:  4.04 GB   |    Зарегистрирован:  1 год 7 месяцев   |    Скачан:  0 раз

Полного источника не было: Никогда

 
   
 
 
 
Автор Сообщение

torrentc.info

Создавать темы 12-Мар-2017 13:00

[Цитировать]

Новые фильмы о Скуби-Ду / The New Scooby-Doo Movies
Страна: США
Жанр: Мультипликация
Продолжительность: ~40 мин
Год выхода: 1973
Перевод 1: Профессиональный (дублированный) Пифагор 2013
Перевод 2: Профессиональный (многоголосый закадровый)
Русские субтитры: нет-Режиссёр: Hanna-Barbera / Ханна-Барбера
Роли озвучивали: Фрэнк Уэлкер, Кейси Касем, Грей Делайл, Минди Кон-Описание: Очаровательный и смешной пес по кличке Скуби Ду вместе со своим хозяином Шеги и друзьями: Вельмой, Дафни и Фредди постоянно попадают в удивительные приключения. Они расследуют мистические случаи похищения людей и собак, связанные с призраками, заброшенными замками и затерянными сокровищами. И не смотря на то, что Скуби Ду ужасно боится привидений, и думает исключительно о сухариках и собачьих консервах, он всегда оказывается победителем и успешно распутывает все эти загадочные происшествия.- --Качество: DVDRip
Формат файла: AVI
Видео: MPEG4, XviD, 720x528 (4:3), 25.000 fps, 1 536 Kbps (0.162 bit/pixel)
Аудио: MP3, 44.1 KHz, 2 ch, 128 Kbps, CBR
Субтитры: отсутствуют
СПАСИБО Alukarrraaa, saylione за любезно предоставленные звуковые дорожки.

Список серий

s2e01 - Тайна заброшенного острова / The Mystery of Haunted Island
s2e02 - Призрачный плавучий театр / The Haunted Showboat (Josie and the Pussycats)
s2e03 - Тайна в Персии (встреча с Джинни) / Scooby Doo meets Jeannie (aka "Mystery in Persia")
s2e04 - Дух, распугавший спортивное шоу (встреча с Тимом Конвеем) / The Spirit Spooked Sports Show
s2e05 - Дезинсектор (встреча с Доном Адамсом) / The Exterminator
s2e06 - Таинственные ветры Вайноны / The Weird Winds of Winona
s2e07 - Привидения конфетной фабрики (встреча с Касс Элиот) / The Haunted Candy Factory
s2e08 - Ярмарка с привидением (встреча с Дик Ван Дайком) / Scooby-Doo Meets Dick Van Dyke

Подробные технические данные

Общее
Полное имя : G:\The New Scooby-Doo Movies season 2\s2e06 - The Weird Winds of Winona.avi
Формат файла : AVI
Формат файла/Информация : Audio Video Interleave
Размер файла : 501 Мбайт
Продолжительность : 41 м.
Общий поток : 1674 Кбит/сек
Программа кодирования : VirtualDubMod 1.5.10.2 (build 2542/release)
Библиотека кодирования : VirtualDubMod build 2542/release
Видео
Идентификатор : 0
Формат файла : MPEG-4 Visual
Профиль формата : Advanced Simple@L5
Параметр BVOP формата : 2
Параметр QPel формата : Нет
Параметр GMC формата : Без точки перехода
Параметр матрицы формата : Default (H.263)
Режим смешивания : Сжатый битовый поток
Идентификатор кодека : XVID
Идентификатор кодека/Подсказка : XviD
Продолжительность : 41 м.
Битрейт : 1536 Кбит/сек
Ширина : 720 пикселей
Высота : 528 пикселей
Соотношение сторон : 4:3
Частота кадров : 25,000 кадров/сек
Цветовое пространство : YUV
Субдискретизация насыщенности : 4:2:0
Битовая глубина : 8 бит
Тип развёртки : Прогрессивная
Метод сжатия : С потерями
Бит/(Пиксели*Кадры) : 0.162
Размер потока : 460 Мбайт (92%)
Библиотека кодирования : XviD 1.2.1 (UTC 2008-12-04)
Аудио
Идентификатор : 1
Формат файла : MPEG Audio
Версия формата : Version 1
Профиль формата : Layer 3
Идентификатор кодека : 55
Идентификатор кодека/Подсказка : MP3
Продолжительность : 41 м.
Вид битрейта : Постоянный
Битрейт : 128 Кбит/сек
Каналы : 2 канала
Частота : 44,1 КГц
Метод сжатия : С потерями
Размер потока : 38,3 Мбайт (8%)
Выравнивание : Разделение по промежуткам
Продолжительность промежутка : 40 мс. (1,00 видеокадр)
Время предзагрузки промежутка : 500 мс.
Библиотека кодирования : LAME3.98.4


[torrentc.info]_t_4368222.torrent
Торрент: Зарегистрирован ·  [ 2017-03-12 13:00 ] ·  1b83b6cacf7ab71f967a59a622d2c9d7e4abefae

21 KB

Статус: проверено
Скачан: 0 раз
Размер: 4.04 GB
Оценка: 
(Голосов: 0)
Сказали спасибо: 0  Спасибо
Похожие темы
[Профиль]    [ЛС]
Показать сообщения:    
Ответить на тему

Текущее время: Сегодня 17:41

Часовой пояс: GMT + 7



Вы не можете начинать темы
Вы не можете отвечать на сообщения
Вы не можете редактировать свои сообщения
Вы не можете удалять свои сообщения
Вы не можете голосовать в опросах
Вы не можете прикреплять файлы к сообщениям
Вы можете скачивать файлы