13 Призраков Скуби-Ду / The 13 Ghosts of Scooby-Doo / Сезон: 1 / Серии: 1-13 из 13 (Артур Дэвис, Тони Лав, Дон Ласк / Arthur Davis, Tony Love, Don Lusk) [1985, Ужасы, Детектив, Комедия, WEB-DL 1080p] Dub + MVO + Sub (Rus, Eng)

Ответить на тему
Статистика раздачи [Обновить пиров]
Размер:  30.46 GB   |    Зарегистрирован:  1 год 2 месяца   |    Скачан:  0 раз

Полного источника не было: Никогда

 
   
 
 
 
Автор Сообщение

torrentc.info

Создавать темы 12-Мар-2017 13:00

[Цитировать]

13 Призраков Скуби-Ду / The 13 Ghosts of Scooby-Doo Страна: США
Жанр: Ужасы, Детектив, Комедия
Продолжительность серии: ~24мин
Год выхода: 1985
Перевод:
  • Профессиональный (дублированный) - Объединение Русский Дубляж по заказу СТС, 2009 год
  • Профессиональный (многоголосый закадровый) - CP Дистрибуция, 2013 год
Субтитры: русские |Rus|, английские-Режиссёр: Артур Дэвис, Тони Лав, Дон Ласк / Arthur Davis, Tony Love, Don Lusk
Описание: Очередные приключения Скуби-Ду, Скрепи и Шегги. Именно в этом мультсериале к нашим друзьям впервые присоединяется Дафна Блэйк, а также несравненный колдун Винсент Ван Гоблин и озорной мальчуган Флимфлам. Всем вместе им предстоит поймать 13 призраков, а затем поместить их в Сундук Демонов, который обладает волшебством.

Список серий и наличие переводов:

01 To All the Ghouls I’ve Loved Before ОРД .02 Scoobra Kadoobra ОРД CP Дистр. Rus.03 Me and My Shadow Demon ОРД .04 Reflections in a Ghoulish Eye ОРД Rus.05 That's Monstertainment ОРД Rus.06 Ship of Ghouls ОРД .07 A Spooky Little Ghoul Like You ОРД .08 When You Witch Upon a Star ОРД .09 It's a Wonderful Scoob ОРД .10 Scooby in Kwackyland ОРД CP Дистр. Rus.11 Coast-to-Ghost ОРД .12 The Ghouliest Show on Earth ОРД .13 Horror-Scope Scoob ОРД .
[url=tracker.php?nm=13%20Ghosts%20Scooby%201985]Предыдущие и альтернативные раздачи[/url]-

Дополнительная информация:

  • Раздача представляет собой полный первый сезон мультсериала в наилучшем качестве видео и с максимально возможным набором аудиодорожек и субтитров.
  • Видео - прямой неперекодированный поток с Amazon US. За Источник: torrentc спасибо CasStudio.
  • - на тунце мыло.
  • Аудио №1 - за Источник: torrentc спасибо [url=profile.php?mode=viewprofile&u=893523]Shellters-bob[/url].
  • Аудио №2 и русские субтитры - с DVD R5 от СР-Дистрибуция "Скуби-Ду! 13 Страшных Историй - В Погоне за Мумией". DVD из личной коллекции.
  • За синхронизацию всего и вся спасибо мне - [url=profile.php?mode=viewprofile&u=21592437]yaroslav230596[/url].
  • Во второй серии криво наложен дубляж, из-за чего кажется рассинхрон, но его там нет.
-Качество: AMZN Web-DL 1080p
Формат файла: MKV
Видео: MPEG-4 AVC | 1440x1080 | 23.976 fps | ~ 14000 kbps
Аудио 1: RUS | AC-3 | 48.0 KHz | 2 ch | 192 kbps | Dub "ОРД" | 1x01-13
Аудио 2: RUS | AC-3 | 48.0 KHz | 2 ch | 192 kbps | MVO "CP Дистрибуция" | 1x02, 10
Аудио 3: ENG | E-AC-3 | 48.0 KHz | 2 ch | 224 kbps
Субтитры 1: RUS | SRT | UTF-8 | 1x02, 04-05, 10
Субтитры 2: ENG | SRT | UTF-8
Семпл

Подробные технические данные

Format : MatroskaFormat version : Version 4 / Version 2File size : 2.47 GiBDuration : 23 min 42 sOverall bit rate mode : VariableOverall bit rate : 14.9 Mb/sMovie name : 1x10 - Scooby in KwackylandEncoded date : UTC 2017-02-01 14:45:01Writing application : mkvmerge v9.8.0 ('Kuglblids') 64bitWriting library : libebml v1.3.4 + libmatroska v1.4.5Cover : YesAttachments : cover.png
VideoID : 1Format : AVCFormat/Info : Advanced Video CodecFormat profile : High@L4Format settings, CABAC : YesFormat settings, ReFrames : 4 framesCodec ID : V_MPEG4/ISO/AVCDuration : 23 min 42 sBit rate mode : VariableBit rate : 14.3 Mb/sMaximum bit rate : 15.0 Mb/sWidth : 1 440 pixelsHeight : 1 080 pixelsDisplay aspect ratio : 4:3Frame rate mode : ConstantFrame rate : 23.976 (24000/1001) FPSColor space : YUVChroma subsampling : 4:2:0Bit depth : 8 bitsScan type : ProgressiveBits/(Pixel*Frame) : 0.383Stream size : 2.36 GiB (96%)Title : CasStudioWriting library : x264 core 148 r2623 d5b2374Encoding settings : cabac=1 / ref=4 / deblock=1:-1:-1 / analyse=0x3:0x133 / me=umh / subme=9 / psy=1 / psy_rd=1.00:0.15 / mixed_ref=1 / me_range=24 / chroma_me=1 / trellis=2 / 8x8dct=1 / cqm=0 / deadzone=21,11 / fast_pskip=1 / chroma_qp_offset=-3 / threads=34 / lookahead_threads=5 / sliced_threads=0 / nr=150 / decimate=1 / interlaced=0 / bluray_compat=0 / constrained_intra=0 / bframes=8 / b_pyramid=2 / b_adapt=2 / b_bias=0 / direct=3 / weightb=1 / open_gop=0 / weightp=2 / keyint=120 / keyint_min=61 / scenecut=0 / intra_refresh=0 / rc_lookahead=120 / rc=crf / mbtree=1 / crf=18.0 / qcomp=0.60 / qpmin=0 / qpmax=69 / qpstep=4 / vbv_maxrate=15000 / vbv_bufsize=31250 / crf_max=0.0 / nal_hrd=vbr / filler=0 / ip_ratio=1.40 / aq=3:1.00Language : EnglishDefault : YesForced : NoColor range : LimitedColor primaries : BT.709Transfer characteristics : BT.709Matrix coefficients : BT.709
Audio #1ID : 2Format : AC-3Format/Info : Audio Coding 3Mode extension : CM (complete main)Format settings, Endianness : BigCodec ID : A_AC3Duration : 23 min 42 sBit rate mode : ConstantBit rate : 192 kb/sChannel(s) : 2 channelsChannel positions : Front: L RSampling rate : 48.0 kHzFrame rate : 31.250 FPS (1536 spf)Bit depth : 16 bitsCompression mode : LossyStream size : 32.6 MiB (1%)Title : Dub Объединение "Русский Дубляж" 2009Language : RussianDefault : YesForced : No
Audio #2ID : 3Format : AC-3Format/Info : Audio Coding 3Mode extension : CM (complete main)Format settings, Endianness : BigCodec ID : A_AC3Duration : 23 min 42 sBit rate mode : ConstantBit rate : 192 kb/sChannel(s) : 2 channelsChannel positions : Front: L RSampling rate : 48.0 kHzFrame rate : 31.250 FPS (1536 spf)Bit depth : 16 bitsCompression mode : LossyStream size : 32.6 MiB (1%)Title : MVO "CP Дистрибуция" 2013Language : RussianDefault : NoForced : No
Audio #3ID : 4Format : E-AC-3Format/Info : Enhanced Audio Coding 3Format settings, Endianness : BigCodec ID : A_EAC3Duration : 23 min 42 sBit rate mode : ConstantBit rate : 224 kb/sChannel(s) : 2 channelsChannel positions : Front: L RSampling rate : 48.0 kHzFrame rate : 187.500 FPS (256 spf)Compression mode : LossyStream size : 38.0 MiB (2%)Language : EnglishDefault : NoForced : No
Text #1ID : 5Format : UTF-8Codec ID : S_TEXT/UTF8Codec ID/Info : UTF-8 Plain TextDuration : 23 min 40 sBit rate : 91 b/sCount of elements : 341Stream size : 15.9 KiB (0%)Language : RussianDefault : NoForced : No
Text #2ID : 6Format : UTF-8Codec ID : S_TEXT/UTF8Codec ID/Info : UTF-8 Plain TextDuration : 23 min 7 sBit rate : 70 b/sCount of elements : 445Stream size : 12.0 KiB (0%)Language : EnglishDefault : NoForced : No

Скриншоты



[torrentc.info]_t_5350755.torrent
Торрент: Зарегистрирован ·  [ 2017-03-12 13:00 ] ·  c370c16b4ee6c6851930906b43a704cf1e6a1465

154 KB

Статус: проверено
Скачан: 0 раз
Размер: 30.46 GB
Оценка: 
(Голосов: 0)
Сказали спасибо: 0  Спасибо
Похожие темы
[Профиль]    [ЛС]
Показать сообщения:    
Ответить на тему

Текущее время: Сегодня 13:25

Часовой пояс: GMT + 7



Вы не можете начинать темы
Вы не можете отвечать на сообщения
Вы не можете редактировать свои сообщения
Вы не можете удалять свои сообщения
Вы не можете голосовать в опросах
Вы не можете прикреплять файлы к сообщениям
Вы можете скачивать файлы