Аватар: Легенда о Корре / The Legend of Korra / Книга: 3 Перемена / Серии: 1-13 из 13 (Michael Dante DiMartino / Майкл Данте ДиМартино Bryan Konietzko / Брайан Кониецко) [2014, мультсериал, приключения, семейный, фэнтези, WEB-DL 720p] Dub

Ответить на тему
Статистика раздачи [Обновить пиров]
Размер:  9.68 GB   |    Зарегистрирован:  1 год 9 месяцев   |    Скачан:  0 раз

Полного источника не было: Никогда

 
   
 
 
 
Автор Сообщение

torrentc.info

Создавать темы 12-Мар-2017 11:18

[Цитировать]

Аватар.Легенда о Корре / Avatar.The Legend of Korra
Страна: США
Жанр: мультсериал, приключения, семейный, фэнтези
Продолжительность: ~00:23:00
Год выхода: 2014
Перевод: Профессиональный (дублированный) SDI Media (по заказу Nickelodeon)
Русские субтитры: нет
Режиссёр: Michael Dante DiMartino / Майкл Данте ДиМартино Bryan Konietzko / Брайан Кониецко
Описание: Действие сериала разворачивается примерно через 70 лет после победы аватара Аанга над Лордом Огня в последней серии мультсериала «Аватар: Легенда об Аанге». Корра, уже овладевшая магией воды, земли и огня должна обучиться последнему элементу — магии воздуха. В этом ей может помочь только сын Аанга и Катары — Тензин. Корра живёт в «Республиканском городе». Республиканский город — это место, где вместе живут люди всех наций. Героям мультсериала предстоит борьба с преступностью и с готовящимся восстанием против магов.
Список серий:
Глава 1: Глоток свежего воздуха
Глава 2: Перерождение
Глава 3: Королева Земли
Глава 4: В опасности
Глава 5: Клан Металла
Глава 6: Старые раны
Глава 7: Истинный Маг Воздуха
Глава 8: Ужас внутри
Глава 9: Надзор
Глава 10: Да здравствует Королева
Глава 11: Ультиматум
Глава 12: Вступи в пустоту
Глава 13: Яд Красного лотоса
Ссылка на предыдущие и альтернативные раздачи: [url=search.php?nm=%CB%E5%E3%E5%ED%E4%E0+%EE+%CA%EE%F0%F0%E5]http://torrentc/forum/search.php?nm=%CB%E5%E3%E5%ED...E%F0%F0%E5[/url]
Семпл: http://multi-up.com/1028422
Качество: WEB-DL 720p
Формат файла: MKV
Видео: AVC,1280x718, 23.976 fps, ~4000 kbps
Аудио: Русский, AC-3, 48 kHz, 2 ch, 192 kbps
Аудио 2: English, AC-3, 48 kHz, 6 ch, 384 kbps
Субтитры: отсутствуют

Подробные технические данные

ОбщееУникальный идентификатор : 185325028567154389368885474612404474313 (0x8B6C4D5CBAC21EDBBFE1601D8CDED1C9)Полное имя : E:\The.Legend.Of.Korra.S03.WEB-DL.720p\The.Legend.of.Korra.S03E01.A.Breath.of.Fresh.Air.mkvФормат файла : MatroskaВерсия формата : Version 4 / Version 2Размер файла : 783 МбайтПродолжительность : 22 м.Общий поток : 4766 Кбит/секДата кодирования : UTC 2015-01-23 20:31:50Программа кодирования : mkvmerge v7.5.0 ('Glass Culture') 32bit built on Jan 4 2015 16:37:25Библиотека кодирования : libebml v1.3.1 + libmatroska v1.4.2_STATISTICS_WRITING_APP : mkvmerge v7.5.0 ('Glass Culture') 32bit built on Jan 4 2015 16:37:25_STATISTICS_WRITING_DATE_UTC : 2015-01-23 20:31:50_STATISTICS_TAGS : BPS DURATION NUMBER_OF_FRAMES NUMBER_OF_BYTESDURATION : 00:22:57.408000000NUMBER_OF_FRAMES : 43044NUMBER_OF_BYTES : 33057792
ВидеоИдентификатор : 1Формат файла : AVCФормат файла/Информация : Advanced Video CodecПрофиль формата : High@L3.1Параметр CABAC формата : НетПараметр ReFrames формата : 2 кадраИдентификатор кодека : V_MPEG4/ISO/AVCПродолжительность : 22 м.Битрейт : 4095 Кбит/секШирина : 1280 пикселейВысота : 718 пикселейСоотношение сторон : 16:9Режим частоты кадров : ПостоянныйЧастота кадров : 23,976 кадра/секЦветовое пространство : YUVСубдискретизация насыщенности : 4:2:0Битовая глубина : 8 битТип развёртки : ПрогрессивнаяБит/(Пиксели*Кадры) : 0.186Размер потока : 672 Мбайт (86%)Язык : EnglishDefault : ДаForced : НетОсновные цвета : BT.709Характеристики трансфера : BT.709Коэффициенты матрицы : BT.709colour_range : Limited
Аудио #1Идентификатор : 2Формат файла : AC-3Формат файла/Информация : Audio Coding 3Расширение режима : CM (complete main)Параметр Endianness формата : BigИдентификатор кодека : A_AC3Продолжительность : 22 м.Вид битрейта : ПостоянныйБитрейт : 192 Кбит/секКаналы : 2 каналаРасположение каналов : Front: L RЧастота : 48,0 КГцБитовая глубина : 16 битМетод сжатия : С потерямиРазмер потока : 31,5 Мбайт (4%)Заголовок : NickЯзык : RussianDefault : ДаForced : Нет
Аудио #2Идентификатор : 3Формат файла : AC-3Формат файла/Информация : Audio Coding 3Расширение режима : CM (complete main)Параметр Endianness формата : BigИдентификатор кодека : A_AC3Продолжительность : 22 м.Вид битрейта : ПостоянныйБитрейт : 384 Кбит/секКаналы : 6 каналовРасположение каналов : Front: L C R, Side: L R, LFEЧастота : 48,0 КГцБитовая глубина : 16 битМетод сжатия : С потерямиРазмер потока : 63,1 Мбайт (8%)Язык : EnglishDefault : НетForced : Нет

Скриншоты




За cведение серий огромное спасибо mer-ci


[torrentc.info]_t_4922440.torrent
Торрент: Зарегистрирован ·  [ 2017-03-12 11:18 ] ·  1e04a34951f8c59363129a28f100ebdcd98fe62c

26 KB

Статус: проверено
Скачан: 0 раз
Размер: 9.68 GB
Оценка: 
(Голосов: 0)
Сказали спасибо: 0  Спасибо
Похожие темы
[Профиль]    [ЛС]
Показать сообщения:    
Ответить на тему

Текущее время: Сегодня 19:51

Часовой пояс: GMT + 7



Вы не можете начинать темы
Вы не можете отвечать на сообщения
Вы не можете редактировать свои сообщения
Вы не можете удалять свои сообщения
Вы не можете голосовать в опросах
Вы не можете прикреплять файлы к сообщениям
Вы можете скачивать файлы