Человек, несущий смерть / Конченый человек / The Terminal Man (Майк Ходжес / Mike Hodges) [1974, США, Научная фантастика, триллер, DVDRip] MVO

Ответить на тему
Статистика раздачи [Обновить пиров]
Размер:  750 MB   |    Зарегистрирован:  1 год 5 месяцев   |    Скачан:  0 раз

Полного источника не было: Никогда

 
   
 
 
 
Автор Сообщение

torrentc.info

Создавать темы 07-Мар-2017 21:07

[Цитировать]

Человек, несущий смерть / Конченый человек / The Terminal Man- -
Жанр: Научная фантастика, триллер
Страна: США
Год выхода: 1974
Продолжительность: 01:44:22-Перевод: Профессиональный (многоголосый закадровый)
Cубтитры: нет
Режиссер: Майк Ходжес / Mike Hodges-В ролях: Джордж Сигал, Джоэн Хакетт, Ричард А. Дайсарт, Доналд Моффэт, Майкл С. Гуинн, Уильям Хэнсен, Джилл Клейберг, Норман Бертон, Джеймс Сиккинг, Джим Антонио, Джин Боркан, Берк Байрнс, Джордан Родс, Ди Кэрролл, Стив Кэнэли, Аль Кекко, Фред Садофф, Джек Колвин, Йэн Вулф, Ли Де Бру, Роберт Ито, Виктор Арго, Майкл Сантьяго, Николас Уорт-Описание: Лос-Анджелес начала 70-х. Компьютерный программист Гарольд Бенсон доставлен полицией в городскую больницу. Он страдает от болезни головного мозга, которая вызывает «затмения» и агрессивное поведение. Доктор Джон Эллис, глава команды нейрохирургов, описывает Бенсона как идеального кандидата на экспериментальную процедуру — внедрение электродов непосредственно в мозг для управления вспышками агрессии. Доктор Джанет Росс не убеждена, что эта процедура сработает, но забаллотирована другими врачами. Операция выполнена — электроды внедрены в мозг. Бенсон преднамеренно вызывает припадки, чтобы получить разряд благостных эмоций, становясь «электрическим наркоманом». Вскоре Бенсон сбегает из больницы. Чем закончится охота на пациента?..-Релиз: от -warx--Семпл: http://multi-up.com/1097402
Качество видео: DVDRip рип с [DVD5]
Формат файла: AVI-Видео: 656x368 (16:9), 23,976 fps, XviD ~867 kbps avg, 0.150 bit/pixel
Аудио: 48 kHz, MPEG Layer 3, 2 ch, ~128.00 kbps avg-

MediaInfo

Общее
Полное имя : D:\скачано\Terminal_Man_(1974)_700.avi
Формат : AVI
Формат/Информация : Audio Video Interleave
Размер файла : 750 Мбайт
Продолжительность : 1 ч. 44 м.
Общий поток : 1005 Кбит/сек
Программа кодирования : VirtualDubMod 1.5.10.3 | www.virtualdub-fr.org || (build 2550/release)
Библиотека кодирования : VirtualDubMod build 2550/release
Видео
Идентификатор : 0
Формат : MPEG-4 Visual
Профиль формата : Advanced Simple@L5
Параметр BVOP формата : 1
Параметр QPel формата : Нет
Параметр GMC формата : Без точки перехода
Параметр матрицы формата : Default (H.263)
Идентификатор кодека : XVID
Идентификатор кодека/Подсказка : XviD
Продолжительность : 1 ч. 44 м.
Битрейт : 867 Кбит/сек
Ширина : 656 пикс.
Высота : 368 пикс.
Соотношение сторон : 16:9
Частота кадров : 23,976 кадр/сек
Цветовое пространство : YUV
Подвыборка цветности : 4:2:0
Битовая глубина : 8 бит
Тип развёртки : Прогрессивная
Метод сжатия : С потерями
Бит/(Пиксели*Кадры) : 0.150
Размер потока : 647 Мбайт (86%)
Библиотека кодирования : XviD 1.2.1 (UTC 2008-12-04)
Аудио
Идентификатор : 1
Формат : MPEG Audio
Версия формата : Version 1
Профиль формата : Layer 3
Идентификатор кодека : 55
Идентификатор кодека/Подсказка : MP3
Продолжительность : 1 ч. 44 м.
Вид битрейта : Постоянный
Битрейт : 128 Кбит/сек
Каналы : 2 канала
Частота : 48,0 КГц
Метод сжатия : С потерями
Размер потока : 95,5 Мбайт (13%)
Выравнивание : Соединение по промежуткам
Продолжительность промежутка : 42 мс. (1,00 видеокадр)
Время предзагрузки промежутка : 504 ms
Библиотека кодирования : LAME3.99r
Настройки программы : -m s -V 4 -q 2 -lowpass 17 -b 128

Скриншот с названием

Скриншоты



[torrentc.info]_1.torrent.torrent
Торрент: Зарегистрирован ·  [ 2017-03-07 21:07 ] ·  358759671884c044f7cdbe646ff029601c664af5

15 KB

Статус: проверено
Скачан: 0 раз
Размер: 750 MB
Оценка: 
(Голосов: 0)
Сказали спасибо: 0  Спасибо
Похожие темы
[Профиль]    [ЛС]
Показать сообщения:    
Ответить на тему

Текущее время: Сегодня 00:25

Часовой пояс: GMT + 7



Вы не можете начинать темы
Вы не можете отвечать на сообщения
Вы не можете редактировать свои сообщения
Вы не можете удалять свои сообщения
Вы не можете голосовать в опросах
Вы не можете прикреплять файлы к сообщениям
Вы можете скачивать файлы