Breakbot – Baby I\'m Yours [2010, House, Electro, Disco, Nu Disco, Synthpop, HDRip-AVC]

Ответить на тему
Статистика раздачи [Обновить пиров]
Размер:  48 MB   |    Зарегистрирован:  1 год 8 месяцев   |    Скачан:  0 раз

Полного источника не было: Никогда

 
   
 
 
 
Автор Сообщение

torrentc.info

Создавать темы 05-Мар-2017 09:37

[Цитировать]

Breakbot
Baby I'm Yours- Страна: Франция
Жанр: House, Electro, Disco, Nu Disco, Synthpop
Продолжительность: 00:02:30
Год выхода: 2010 г.Описание: Видеоклип на сингл Baby I’m Yours французского певца Breakbot (aka Thibaut Berland) сделан в технике ротоскопирования, для чего было обработано 2'000 кадров.Качество: HDRip-AVC
Формат файла: MKV
Видео кодек: H.264
Аудио кодек: AAC
Видео: AVC (H.264), 720x400 (16:9), 25 fps, ~2500 kbps avg, 0.347 bit/pixel
Аудио: AC3, 2 ch, 48 kHz, ~192.00 kbps avg

MediaInfo

Общее
Уникальный идентификатор : 241492576851742919705148959801236412214 (0xB5ADC74C7881D1E2914A73C86F465736)
Полное имя : E:\My Torrents 2\[apreder]MINI_MOVIES_09\[apreder]MM_Breakbot_Baby_I'm_Yours(2010)HDRip.mkv
Формат файла : Matroska
Версия формата : Version 2
Размер файла : 48,3 Мбайт
Продолжительность : 2 м. 30 с.
Общий поток : 2698 Кбит/сек
Дата кодирования : UTC 2014-11-09 16:26:15
Программа кодирования : mkvmerge v7.3.0 ('Nouages') 64bit built on Oct 22 2014 18:53:34
Библиотека кодирования : libebml v1.3.0 + libmatroska v1.4.1
Видео
Идентификатор : 1
Формат файла : AVC
Формат файла/Информация : Advanced Video Codec
Профиль формата : High@L4.1
Параметр CABAC формата : Да
Параметр ReFrames формата : 16 кадров
Идентификатор кодека : V_MPEG4/ISO/AVC
Продолжительность : 2 м. 30 с.
Битрейт : 2500 Кбит/сек
Ширина : 720 пикселей
Высота : 400 пикселей
Соотношение сторон : 16:9
Режим частоты кадров : Постоянный
Частота кадров : 25,000 кадров/сек
Цветовое пространство : YUV
Субдискретизация насыщенности : 4:2:0
Битовая глубина : 8 бит
Тип развёртки : Прогрессивная
Бит/(Пиксели*Кадры) : 0.347
Размер потока : 43,9 Мбайт (91%)
Библиотека кодирования : x264 core 142 r2431 ac76440
Настройки программы : cabac=1 / ref=16 / deblock=1:-1:-1 / analyse=0x3:0x133 / me=umh / subme=10 / psy=1 / psy_rd=1.00:0.15 / mixed_ref=1 / me_range=24 / chroma_me=1 / trellis=2 / 8x8dct=1 / cqm=0 / deadzone=21,11 / fast_pskip=1 / chroma_qp_offset=-3 / threads=6 / lookahead_threads=1 / sliced_threads=0 / nr=0 / decimate=1 / interlaced=0 / bluray_compat=0 / constrained_intra=0 / bframes=8 / b_pyramid=2 / b_adapt=2 / b_bias=0 / direct=3 / weightb=1 / open_gop=0 / weightp=2 / keyint=250 / keyint_min=25 / scenecut=40 / intra_refresh=0 / rc_lookahead=60 / rc=2pass / mbtree=1 / bitrate=2500 / ratetol=1.0 / qcomp=0.60 / qpmin=0 / qpmax=69 / qpstep=4 / cplxblur=20.0 / qblur=0.5 / vbv_maxrate=62500 / vbv_bufsize=78125 / nal_hrd=none / filler=0 / ip_ratio=1.40 / aq=1:1.00
Default : Да
Forced : Нет
Аудио
Идентификатор : 2
Формат файла : AC-3
Формат файла/Информация : Audio Coding 3
Расширение режима : CM (complete main)
Параметр Endianness формата : Big
Идентификатор кодека : A_AC3
Продолжительность : 2 м. 30 с.
Вид битрейта : Постоянный
Битрейт : 192 Кбит/сек
Каналы : 2 канала
Расположение каналов : Front: L R
Частота : 48,0 КГц
Битовая глубина : 16 бит
Метод сжатия : С потерями
Размер потока : 3,44 Мбайт (7%)
Default : Да
Forced : Нет

Скриншоты

Резервные скриншоты

-[1'906]


[torrentc.info]_t_4865042.torrent
Торрент: Зарегистрирован ·  [ 2017-03-05 09:36 ] ·  30d052b3176166856c75d2eb99e531fa5658f23d

16 KB

Статус: проверено
Скачан: 0 раз
Размер: 48 MB
Оценка: 
(Голосов: 0)
Сказали спасибо: 0  Спасибо
Похожие темы
[Профиль]    [ЛС]
Показать сообщения:    
Ответить на тему

Текущее время: Сегодня 17:58

Часовой пояс: GMT + 7



Вы не можете начинать темы
Вы не можете отвечать на сообщения
Вы не можете редактировать свои сообщения
Вы не можете удалять свои сообщения
Вы не можете голосовать в опросах
Вы не можете прикреплять файлы к сообщениям
Вы можете скачивать файлы