[iPhone] Драконий Жемчуг Фильм 12 Фьюджон - Перерождение / Dragon Ball Z Movie 12 Fusion Reborn (Ямаути Сигэясу / Yamauchi Shigeyasu) [1995, приключения, комедия, фэнтези, сёнэн, DVDRip, 576x320]

Ответить на тему
Статистика раздачи [Обновить пиров]
Размер:  522 MB   |    Зарегистрирован:  1 год 9 месяцев   |    Скачан:  0 раз

Полного источника не было: Никогда

 
   
 
 
 
Автор Сообщение

torrentc.info

Создавать темы 21-Фев-2017 08:26

[Цитировать]

Драконий Жемчуг Фильм 12 Фьюджон - Перерождение-
Оригинальное название: ドラゴンボールZ 復活のフュージョン!! 悟空とベジータ
Английское название: Dragon Ball Z Movie 12 Fusion Reborn-Год выхода:
1995
Страна: Япония
Жанр:приключения, комедия, фэнтези, сёнэн
Продолжительность: 50 минут 55 секунд-Перевод : Субтитры
Субтитры: -Дата выхода: 04.03.1995-Режиссёр: Ямаути Сигэясу
Студия: -Описание: Во время очередного турнира боевых искусств в параллельном измерении произошла катастрофа - в резиденции Энмы сломался очиститель душ, и вся злая энергия, что он собрал, выплеснулась на одного из помощников Энмы и превратила его в ужасного монстра. Из за неразберихи души снова обрели тела и вернулись в наше измерение, начался полный хаос. Гоку и Пайкухан, участвовавшие в это самое время в турнире, были посланы к замку Энмы узнать, что же произошло. Во время битвы с монстром к Гоку на помощь пришел погибший друг и началась настоящая битва.-[url=viewtopic.php?t=1998873] [/url] || || || -Качество: DVDRip
Формат файла: *.m4v
Видео кодек: H.264
Аудио кодек: ААС
Разрешение: 576х320
Другие параметры видео: 960 Кбит/сек, 16:9, 23,976 кадр/сек
Аудио : 160 Кбит/сек, 2 канала(ов), 48,0 КГц
Аудио : 160 Кбит/сек, 2 канала(ов), 48,0 КГц
Аудио : 160 Кбит/сек, 2 канала(ов), 48,0 КГц
Вшитая обложка: есть
Доп. теги (режиссёр, актёры и т.д.): есть
Телешоу/видеоклип : не требуется
Главы: нет
Серия/сезон: не требуется

MediaInfo

Format                                   : MPEG-4
Format profile                           : Base Media / Version 2
Codec ID                                 : mp42
File size                                : 522 MiB
Duration                                 : 50mn 55s
Overall bit rate mode                    : Variable
Overall bit rate                         : 1 433 Kbps
Movie name                               : Dragon Ball Z Movie 12
Genre                                    : Adventure
Recorded date                            : 1995
Encoded date                             : UTC 2012-06-28 11:17:23
Tagged date                              : UTC 2012-07-16 06:07:55
Writing application                      : HandBrake 0.9.6 2012022800
Cover                                    : Yes
iTunMOVI                                 :  /  /  /  /  directors /   /    /    name /    Ямаути Сигэясу /    /   /  /
desc                                     : Во время очередного турнира боевых искусств в параллельном измерении произошла катастрофа - в резиденции Энмы сломался очиститель душ, и вся злая энергия, что он собрал, выплеснулась на одного из помощников Энмы и превратила его в ужасного монстра.
ldes                                     : Во время очередного турнира боевых искусств в параллельном измерении произошла катастрофа - в резиденции Энмы сломался очиститель душ, и вся злая энергия, что он собрал, выплеснулась на одного из помощников Энмы и превратила его в ужасного монстра. Из за неразберихи души снова обрели тела и вернулись в наше измерение, начался полный хаос. Гоку и Пайкухан, участвовавшие в это самое время в турнире, были посланы к замку Энмы узнать, что же произошло. Во время битвы с монстром к Гоку на помощь пришел погибший друг и началась настоящая битва.
stik                                     : 9
Video
ID                                       : 1
Format                                   : AVC
Format/Info                              : Advanced Video Codec
Format profile                           : Baseline@L3.0
Format settings, CABAC                   : No
Format settings, ReFrames                : 4 frames
Codec ID                                 : avc1
Codec ID/Info                            : Advanced Video Coding
Duration                                 : 50mn 55s
Bit rate mode                            : Variable
Bit rate                                 : 960 Kbps
Width                                    : 576 pixels
Height                                   : 320 pixels
Display aspect ratio                     : 16:9
Frame rate mode                          : Variable
Frame rate                               : 23.976 fps
Minimum frame rate                       : 23.974 fps
Maximum frame rate                       : 23.981 fps
Color space                              : YUV
Chroma subsampling                       : 4:2:0
Bit depth                                : 8 bits
Scan type                                : Progressive
Bits/(Pixel*Frame)                       : 0.217
Stream size                              : 349 MiB (67%)
Writing library                          : x264 core 120
Encoding settings                        : cabac=0 / ref=4 / deblock=1:0:0 / analyse=0x1:0x131 / me=umh / subme=6 / psy=1 / psy_rd=0.00:0.00 / mixed_ref=1 / me_range=16 / chroma_me=1 / trellis=0 / 8x8dct=0 / cqm=0 / deadzone=21,11 / fast_pskip=0 / chroma_qp_offset=0 / threads=6 / sliced_threads=0 / nr=0 / decimate=1 / interlaced=0 / bluray_compat=0 / constrained_intra=0 / bframes=0 / weightp=0 / keyint=240 / keyint_min=24 / scenecut=40 / intra_refresh=0 / rc_lookahead=40 / rc=2pass / mbtree=1 / bitrate=960 / ratetol=1.0 / qcomp=0.60 / qpmin=3 / qpmax=69 / qpstep=4 / cplxblur=20.0 / qblur=0.5 / vbv_maxrate=1500 / vbv_bufsize=2000 / nal_hrd=none / ip_ratio=1.40 / aq=1:1.00
Encoded date                             : UTC 2012-06-28 11:17:23
Tagged date                              : UTC 2012-06-28 11:28:08
Color primaries                          : BT.601-6 525, BT.1358 525, BT.1700 NTSC, SMPTE 170M
Transfer characteristics                 : BT.709-5, BT.1361
Matrix coefficients                      : BT.601-6 525, BT.1358 525, BT.1700 NTSC, SMPTE 170M
Audio #1
ID                                       : 2
Format                                   : AAC
Format/Info                              : Advanced Audio Codec
Format profile                           : LC
Codec ID                                 : 40
Duration                                 : 50mn 55s
Bit rate mode                            : Variable
Bit rate                                 : 147 Kbps
Maximum bit rate                         : 187 Kbps
Channel(s)                               : 2 channels
Channel positions                        : Front: L R
Sampling rate                            : 48.0 KHz
Compression mode                         : Lossy
Stream size                              : 53.7 MiB (10%)
Language                                 : Japanese
Encoded date                             : UTC 2012-06-28 11:17:23
Tagged date                              : UTC 2012-06-28 11:28:07
Audio #2
ID                                       : 3
Format                                   : AAC
Format/Info                              : Advanced Audio Codec
Format profile                           : LC
Codec ID                                 : 40
Duration                                 : 50mn 55s
Bit rate mode                            : Variable
Bit rate                                 : 160 Kbps
Maximum bit rate                         : 298 Kbps
Channel(s)                               : 2 channels
Channel positions                        : Front: L R
Sampling rate                            : 48.0 KHz
Compression mode                         : Lossy
Stream size                              : 58.1 MiB (11%)
Language                                 : English
Encoded date                             : UTC 2012-06-28 11:17:23
Tagged date                              : UTC 2012-06-28 11:28:07
Audio #3
ID                                       : 4
Format                                   : AAC
Format/Info                              : Advanced Audio Codec
Format profile                           : LC
Codec ID                                 : 40
Duration                                 : 50mn 55s
Bit rate mode                            : Variable
Bit rate                                 : 160 Kbps
Maximum bit rate                         : 325 Kbps
Channel(s)                               : 2 channels
Channel positions                        : Front: L R
Sampling rate                            : 48.0 KHz
Compression mode                         : Lossy
Stream size                              : 58.2 MiB (11%)
Language                                 : English
Encoded date                             : UTC 2012-06-28 11:17:23
Tagged date                              : UTC 2012-06-28 11:28:07
Text #1
ID                                       : 5
Format                                   : Timed text
Muxing mode                              : sbtl
Codec ID                                 : tx3g
Duration                                 : 50mn 36s
Bit rate mode                            : Variable
Bit rate                                 : 237 bps
Stream size                              : 87.7 KiB (0%)
Language                                 : Russian
Encoded date                             : UTC 2012-06-28 11:17:23
Tagged date                              : UTC 2012-06-28 11:28:07
Text #2
ID                                       : 6
Format                                   : Timed text
Muxing mode                              : sbtl
Codec ID                                 : tx3g
Duration                                 : 50mn 36s
Bit rate mode                            : Variable
Bit rate                                 : 254 bps
Stream size                              : 94.1 KiB (0%)
Language                                 : English
Encoded date                             : UTC 2012-06-28 11:17:23
Tagged date                              : UTC 2012-06-28 11:28:07

Скриншоты

- Группы:


[torrentc.info]_t_4126938.torrent
Торрент: Зарегистрирован ·  [ 2017-02-21 08:24 ] ·  af2020141c4772376cbe33581d259379e33b268e

1 KB

Статус: проверено
Скачан: 0 раз
Размер: 522 MB
Оценка: 
(Голосов: 0)
Сказали спасибо: 0  Спасибо
Похожие темы
[Профиль]    [ЛС]
Показать сообщения:    
Ответить на тему

Текущее время: Сегодня 19:36

Часовой пояс: GMT + 7



Вы не можете начинать темы
Вы не можете отвечать на сообщения
Вы не можете редактировать свои сообщения
Вы не можете удалять свои сообщения
Вы не можете голосовать в опросах
Вы не можете прикреплять файлы к сообщениям
Вы можете скачивать файлы