[iPad] Эксперименты Лэйн / Serial Experiments Lain (Накамура Рютаро / Nakamura Ryutaro) [Сезон 1, серии 1-13 из 13] [RUS, JAP+SUB] [1998, киберпанк, драма, фантастика, BDRip, 808x576]

Ответить на тему
Статистика раздачи [Обновить пиров]
Размер:  4.76 GB   |    Зарегистрирован:  1 год 9 месяцев   |    Скачан:  0 раз

Полного источника не было: Никогда

 
   
 
 
 
Автор Сообщение

torrentc.info

Создавать темы 21-Фев-2017 08:25

[Цитировать]

-
Год выхода: 1998
Страна: Япония
Жанр: киберпанк, драма, фантастика
Продолжительность: 13 эп. по 24 мин.
Перевод : Дубляж (XL Media)
Русские субтитры: есть (XL Media)


Режиссёр: Накамура Рютаро / Nakamura Ryutaro
Студия: -Описание:
Насколько связана реальность и виртуальный мир? Четырнадцатилетняя школьница Лэйн не задумывалась над этим вопросом. Эта замкнутая тихая девушка, «ещё ребёнок», как говорят о ней одноклассницы, вообще мало чем интересуется, прячется от всех с любимым плюшевым мишкой и редко подходит к своему простенькому компьютеру.
Но однажды всё изменилось. Несчастье, произошедшее с Тисой Ёмодой из параллельного класса, и электронное сообщение, которого не должно было быть, – всё это побудило Лэйн исследовать пространство Сети, и она попросила у отца-программиста купить ей более совершенную модель компьютера. Тем временем из разговора подруг девушка узнала, что в клубе Сайберия видели её двойника – «другую Лэйн». Загадки и странные события врываются в спокойную жизнь, и в попытках разобраться Лэйн всё глубже погружается в бездну вечных вопросов о реальности и её восприятии, памяти и сознании, Боге и человечестве в целом.
Созданный в то время, когда ещё только исследовались возможности «электронного» общения, этот сериал стал своего рода каноном жанра киберпанк. Однако «Серийные эксперименты Лэйн» не выглядит устаревшими – благодаря сложности затронутых тем, интересным визуальным находкам, а также из-за того, что история девушки, которая ищет в Сети саму себя, остаётся актуальной и по сей день.
© Расселл Д. Джонс, World Art
-Формат файла: *.mp4
Источник: Torrentc.org: [url=viewtopic.php?t=3892777]http://Torrentc.org/forum/viewtopic.php?t=3892777[/url]
Видео: h264, 808x576, 1 653 Kbps, 23.976 fps, 0.148 bit/pixel
Аудио : aac, 48000 Hz, stereo, s16, 157 kb/s
Аудио : aac, 48000 Hz, stereo, s16, 157 kb/s

MediaInfo

General
Complete name                            : ./01 Weird.m4v
Format                                   : MPEG-4
Codec ID                                 : M4V
File size                                : 338 MiB
Duration                                 : 23mn 56s
Overall bit rate mode                    : Variable
Overall bit rate                         : 1 974 Kbps
Movie name                               : Странно
Album                                    : Эксперименты Лэйн, Сезон 1
Track name/Position                      : 1
Track name/Total                         : 13
Performer                                : Kaori Shimizu, Ayako Kawasumi, Rei Igarashi, Ryunosuke Ohbayashi, Yoko Asada
Recorded date                            : UTC 1998-07-06 09:00:00
Encoded date                             : UTC 2012-10-06 18:51:37
Tagged date                              : UTC 2012-10-06 18:51:55
Writing application                      : 2iDevice for Mac OS X
Cover                                    : Yes
tvsh                                     : Serial Experiments Lain
geID                                     : 4402
xid                                      : iPad:vendor_id:1998-321835-101
stik                                     : 10
tvsn                                     : 1
iTunEXTC                                 : mpaa|UNRATED|600|
purd                                     : 2012-10-06T18:51:54Z
tven                                     : Странно
cnID                                     : 321835101
tves                                     : 1
ldes                                     : Лэйн Ивакура — обыкновенная школьница, замкнутая и малообщительная. Однажды она получает электронное письмо от умершей подруги и внезапно становится центром драматических событий. Граница между реальным и виртуальным миром истончается, и игроки в шутеры убивают людей, а нелегальные устройства позволяют подключаться к Сети без компьютера…
desc                                     : Насколько связана реальность и виртуальный мир? Четырнадцатилетняя школьница Лэйн не задумывалась над этим вопросом. Эта замкнутая тихая девушка, «ещё ребёнок», как говорят о ней одноклассницы, вообще мало чем интересуется, прячется от всех с любимым плюше
iTunMOVI                                 :  /  /  /    /     studio /     Triangle Staff /     cast /      /        /         name /         Kaori Shimizu /        /        /         name /         Ayako Kawasumi /        /        /         name /         Rei Igarashi /        /        /         name /         Ryunosuke Ohbayashi /        /        /         name /         Yoko Asada /        /      /     directors /      /        /         name /         Ryutaro Nakamura /        /      /     producers /      /        /         name /         Yasuyuki Ueda /        /        /         name /         Mie Ide /        /      /    /
Video
ID                                       : 1
Format                                   : AVC
Format/Info                              : Advanced Video Codec
Format profile                           : High@L4.1
Format settings, CABAC                   : Yes
Format settings, ReFrames                : 9 frames
Codec ID                                 : avc1
Codec ID/Info                            : Advanced Video Coding
Duration                                 : 23mn 56s
Bit rate                                 : 1 653 Kbps
Maximum bit rate                         : 15.3 Mbps
Width                                    : 808 pixels
Height                                   : 576 pixels
Display aspect ratio                     : 1.407
Frame rate mode                          : Constant
Frame rate                               : 23.976 fps
Color space                              : YUV
Chroma subsampling                       : 4:2:0
Bit depth                                : 8 bits
Scan type                                : Progressive
Bits/(Pixel*Frame)                       : 0.148
Stream size                              : 283 MiB (84%)
Writing library                          : x264 core 125 r2208 d9d2288
Encoding settings                        : cabac=1 / ref=9 / deblock=1:0:0 / analyse=0x3:0x133 / me=hex / subme=9 / psy=1 / psy_rd=1.00:0.00 / mixed_ref=1 / me_range=16 / chroma_me=1 / trellis=1 / 8x8dct=1 / cqm=0 / deadzone=21,11 / fast_pskip=1 / chroma_qp_offset=-2 / threads=2 / lookahead_threads=1 / sliced_threads=0 / nr=0 / decimate=1 / interlaced=0 / bluray_compat=0 / constrained_intra=0 / bframes=12 / b_pyramid=2 / b_adapt=1 / b_bias=0 / direct=1 / weightb=1 / open_gop=0 / weightp=2 / keyint=250 / keyint_min=23 / scenecut=40 / intra_refresh=0 / rc_lookahead=40 / rc=crf / mbtree=1 / crf=17.0 / qcomp=0.60 / qpmin=0 / qpmax=69 / qpstep=4 / ip_ratio=1.40 / aq=1:1.00
Language                                 : Japanese
Tagged date                              : UTC 2012-10-06 18:51:45
Audio #1
ID                                       : 2
Format                                   : AAC
Format/Info                              : Advanced Audio Codec
Format profile                           : LC
Codec ID                                 : 40
Duration                                 : 23mn 56s
Bit rate mode                            : Variable
Bit rate                                 : 157 Kbps
Maximum bit rate                         : 260 Kbps
Channel(s)                               : 2 channels
Channel positions                        : Front: L R
Sampling rate                            : 48.0 KHz
Compression mode                         : Lossy
Delay relative to video                  : -417ms
Stream size                              : 27.0 MiB (8%)
Title                                    : XL Media
Language                                 : Russian
Encoded date                             : UTC 2012-10-06 18:51:42
Tagged date                              : UTC 2012-10-06 18:51:45
Audio #2
ID                                       : 3
Format                                   : AAC
Format/Info                              : Advanced Audio Codec
Format profile                           : LC
Codec ID                                 : 40
Duration                                 : 23mn 56s
Bit rate mode                            : Variable
Bit rate                                 : 157 Kbps
Maximum bit rate                         : 261 Kbps
Channel(s)                               : 2 channels
Channel positions                        : Front: L R
Sampling rate                            : 48.0 KHz
Compression mode                         : Lossy
Delay relative to video                  : -417ms
Stream size                              : 26.9 MiB (8%)
Language                                 : Japanese
Encoded date                             : UTC 2012-10-06 18:51:44
Tagged date                              : UTC 2012-10-06 18:51:45
Text #1
ID                                       : 4
Format                                   : Timed text
Muxing mode                              : sbtl
Codec ID                                 : tx3g
Duration                                 : 22mn 9s
Bit rate mode                            : Variable
Bit rate                                 : 46 bps
Delay relative to video                  : -417ms
Stream size                              : 7.46 KiB (0%)
Title                                    : XL Media
Language                                 : Russian
Encoded date                             : UTC 2012-10-06 18:51:45
Tagged date                              : UTC 2012-10-06 18:51:45
Text #2
ID                                       : 5
Format                                   : Timed text
Muxing mode                              : sbtl
Codec ID                                 : tx3g
Duration                                 : 22mn 9s
Bit rate mode                            : Variable
Bit rate                                 : 23 bps
Delay relative to video                  : -417ms
Stream size                              : 3.65 KiB (0%)
Title                                    : R1
Language                                 : English
Encoded date                             : UTC 2012-10-06 18:51:45
Tagged date                              : UTC 2012-10-06 18:51:45

log x264

[libx264 @ 0x37881c0] frame I:406   Avg QP:13.82  size: 53897
[libx264 @ 0x37881c0] frame P:15855 Avg QP:17.20  size: 13855
[libx264 @ 0x37881c0] frame B:18191 Avg QP:19.08  size:  3045
[libx264 @ 0x37881c0] consecutive B-frames: 20.6% 33.5%  5.5%  9.1% 18.2% 11.4%  1.0%  0.0%  0.0%  0.0%  0.0%  0.0%  0.6%
[libx264 @ 0x37881c0] mb I  I16..4: 20.3% 53.9% 25.7%
[libx264 @ 0x37881c0] mb P  I16..4:  1.7%  3.9%  1.4%  P16..4: 45.6% 16.4% 13.2%  0.3%  0.1%    skip:17.3%
[libx264 @ 0x37881c0] mb B  I16..4:  0.1%  0.1%  0.0%  B16..8: 36.6%  5.0%  0.9%  direct: 2.3%  skip:55.0%  L0:52.9% L1:42.2% BI: 4.9%
[libx264 @ 0x37881c0] 8x8 transform intra:55.4% inter:73.0%
[libx264 @ 0x37881c0] coded y,uvDC,uvAC intra: 76.6% 75.6% 53.9% inter: 22.1% 20.8% 4.4%
[libx264 @ 0x37881c0] i16 v,h,dc,p: 24% 39%  3% 34%
[libx264 @ 0x37881c0] i8 v,h,dc,ddl,ddr,vr,hd,vl,hu:  9% 12%  5% 10% 14% 13% 14% 11% 14%
[libx264 @ 0x37881c0] i4 v,h,dc,ddl,ddr,vr,hd,vl,hu: 11% 19%  4%  9% 13% 11% 12%  9% 13%
[libx264 @ 0x37881c0] i8c dc,h,v,p: 35% 33% 17% 15%
[libx264 @ 0x37881c0] Weighted P-Frames: Y:9.4% UV:3.3%
[libx264 @ 0x37881c0] ref P L0: 43.9%  8.4% 17.1%  8.1%  6.5%  5.1%  4.7%  2.6%  2.5%  1.0%  0.0%
[libx264 @ 0x37881c0] ref B L0: 49.3% 18.0% 12.2%  6.6%  5.3%  4.7%  3.3%  0.5%
[libx264 @ 0x37881c0] ref B L1: 90.5%  9.5%
[libx264 @ 0x37881c0] kb/s:1653.30

Список эпизодов

01 Странно
02 Девочки
03 Психе
04 Религия
05 Искажение
06 Дети
07 Общество
08 Слухи
09 Протокол
10 Любовь
11 Инфорнография
12 Ландшафт
13 Эго

Вид в iTunes/iPad



[torrentc.info]_t_4207730.torrent
Торрент: Зарегистрирован ·  [ 2017-02-21 08:24 ] ·  8bc70e6f3d948d1daa687cf84a70982e96987669

49 KB

Статус: проверено
Скачан: 0 раз
Размер: 4.76 GB
Оценка: 
(Голосов: 0)
Сказали спасибо: 0  Спасибо
Похожие темы
[Профиль]    [ЛС]
Показать сообщения:    
Ответить на тему

Текущее время: Сегодня 16:07

Часовой пояс: GMT + 7



Вы не можете начинать темы
Вы не можете отвечать на сообщения
Вы не можете редактировать свои сообщения
Вы не можете удалять свои сообщения
Вы не можете голосовать в опросах
Вы не можете прикреплять файлы к сообщениям
Вы можете скачивать файлы