[iPhone] Наруто: Ураганные хроники / Naruto Shippuuden (Датэ Хаято / Hayato Date) (Сезон 12, серии с 271 по 292, из xxx)[2007, приключения, комедия, боевые искусства, сёнэн, HDTVRip, 480x272]

Ответить на тему
Статистика раздачи [Обновить пиров]
Размер:  2.98 GB   |    Зарегистрирован:  1 год 8 месяцев   |    Скачан:  0 раз

Полного источника не было: Никогда

 
   
 
 
 
Автор Сообщение

torrentc.info

Создавать темы 21-Фев-2017 08:25

[Цитировать]

-Наруто: Ураганные хроники / Naruto Shippuuden- Год выхода: 2007
Страна: Япония
Жанр: Приключения, комедия, боевые искусства, сёнэн
Продолжительность: ТВ ~25м серия-Перевод:
  • Хардсаб: Отсутствует
  • Субтитры: Отсутствуют
-Озвучка:
  • Любительский (одноголосый) Ancord
-Режиссер: Датэ Хаято-Роли озвучивали: Такэути Дзюнко, Накамура Тиэ, Иноэ Кадзухико, Оцука Хотю, Кацуки Масако, Нэмото Кэйко, Морикубо Сётаро, Сэки Тосихико, Тобита Нобуо, Цубой Томохиро, Отани Икуэ, Паку Роми, Мидзуки Нана-Описание: В мире Наруто незаметно пролетели два года. Бывшие новички пополнили ряды опытных синоби в ранге тюнин и дзёнин. Главные герои не сидели на месте – каждый стал учеником одного из легендарных Саннин – трех великих ниндзя Конохи. Парень в оранжевом продолжил обучение у мудрого, но эксцентричного Дзирайи, постепенно восходя на новую ступень боевого мастерства. Сакура выдвинулась в помощницы и доверенные лица целительницы Цунадэ – нового вождя Деревни Листвы. Ну а Саскэ, чья гордыня привела к изгнанию из Конохи, вступил во временный союз со зловещим Оротимару, причем каждый считает, что лишь использует другого до поры до времени.
Краткая передышка закончилась, и события в очередной раз понеслись с ураганной быстротой. В Конохе вновь прорастают семена старых раздоров, посеянные первыми Хокагэ. Таинственный лидер Акацуки привел в действие план обретения мирового господства. Неспокойно в Деревне Песка и соседних странах, везде всплывают старые тайны, и ясно, что когда-то придется платить по счетам. Долгожданное продолжение манги вдохнуло новую жизнь в сериал и новую надежду в сердца бесчисленных фанатов!-Качество: HDTVRip
Формат файла: MP4
Видео кодек: H.264
Аудио кодек: AAC
Видео: 480x272 (16:9); 23.976 fps; 640 kbps
Аудио: 48 kHz, 2 ch, 128 kbps-[url=viewtopic.php?t=3497659][ANIME] Наруто: Ураганные хроники / Naruto Shippuuden (Датэ Хаято / Hayato Date) (Сезоны с 1 по 12, серии с 1 по 270, из xxx)[2007 г., приключения, комедия, боевые искусства, сёнэн, TVRip | HDTVRip, 480x272 | 480x360][/url]
Список эпизодов:
271 - Дорога к Сакуре
272 - Мифуне против Ханзо
273 - Время для клятвы
274 - Прощайте, Ино-Сика-Тё
275 - Письмо в сердце
276 - Появление Демонической Статуи Еретика
277 - Знак Соглашения
278 - Цель - Ниндзя-Медик
279 - Ловушка Белого Дзэцу
280 - Эстетика Творца
281 - Объединенные Материнские Войска!!
282 - Скрытая история: Завершенная Команда!
283 - Два солнца!
284 - Сокрушитель шлемов! Акэбино Дзинин
285 - Обладательница Стихии Жара! Пакура из деревни Скрытого Песка
286 - Вещи, которые нельзя вернуть назад
287 - На что поставить пари?!
288 - Угроза. Комбо Дзимпати и Кусимару!
289 - Меч молнии!! Ринго Амеюри
290 - Сила - эпизод 1
291 - Сила - эпизод 2
292 - Сила - эпизод 3
MI:
General
Complete name : D:\Мои раздачи\Naruto Shippuuden\Naruto_Shippuuden_271.mp4
Format : MPEG-4
Format profile : Base Media
Codec ID : isom
File size : 138 MiB
Duration : 23mn 9s
Overall bit rate mode : Variable
Overall bit rate : 833 Kbps
Movie name : Дорога к Сакуре
Track name/Position : 271
Track name/Total : 0
Performer : Датэ Хаято
Genre : Adventure
Encoded date : UTC 2012-08-06 17:12:23
Tagged date : UTC 2012-08-06 17:12:23
Cover : Yes
desc : Это аниме покроет вторую часть сюжетной линии манги, которая берёт своё начало два года спустя, после событий в конце памятной арки о попытки вернуть Саске в деревню Скрытого Листа
ldes : Краткая передышка закончилась, и события в очередной раз понеслись с ураганной быстротой. В Конохе вновь прорастают семена старых раздоров, посеянные первыми Хокагэ. Таинственный лидер Акацуки привел в действие план обретения мирового господства. Неспокойно в Деревне Песка и соседних странах, везде всплывают старые тайны, и ясно, что когда-то придется платить по счетам. Долгожданное продолжение манги вдохнуло новую жизнь в сериал и новую надежду в сердца бесчисленных фанатов!
stik : 10
iTunMOVI : / / / / cast / / / name / Такэути Дзюнко / / / name / Накамура Тиэ / / / name / Иноэ Кадзухико / / / name / Оцука Хотю / / / name / Кацуки Масако / / / name / Нэмото Кэйко / / / name / Морикубо Сётаро / / / name / Сэки Тосихико / / / name / Тобита Нобуо / / / name / Цубой Томохиро / / / name / Отани Икуэ / / / name / Паку Роми / / / name / Мидзуки Нана / / / directors / / / name / Датэ Хаято / / / /
tvsh : Naruto Shippuuden
tvsn : 12
tves : 271
Video
ID : 1
Format : AVC
Format/Info : Advanced Video Codec
Format profile : Baseline@L3.0
Format settings, CABAC : No
Format settings, ReFrames : 6 frames
Codec ID : avc1
Codec ID/Info : Advanced Video Coding
Duration : 23mn 9s
Bit rate : 640 Kbps
Maximum bit rate : 5 426 Kbps
Width : 480 pixels
Height : 272 pixels
Display aspect ratio : 16:9
Frame rate mode : Constant
Frame rate : 23.976 fps
Color space : YUV
Chroma subsampling : 4:2:0
Bit depth : 8 bits
Scan type : Progressive
Bits/(Pixel*Frame) : 0.204
Stream size : 106 MiB (77%)
Writing library : x264 core 120 r2120+639 552713c
Encoding settings : cabac=0 / ref=6 / deblock=1:1:1 / analyse=0x1:0x111 / me=umh / subme=9 / psy=1 / fade_compensate=0.00 / psy_rd=1.00:0.00 / mixed_ref=1 / me_range=16 / chroma_me=1 / trellis=0 / 8x8dct=0 / cqm=0 / deadzone=21,11 / fast_pskip=0 / chroma_qp_offset=-2 / threads=6 / sliced_threads=0 / nr=0 / decimate=0 / interlaced=0 / bluray_compat=0 / constrained_intra=0 / fgo=0 / bframes=0 / weightp=0 / keyint=250 / keyint_min=23 / scenecut=40 / intra_refresh=0 / rc_lookahead=60 / rc=2pass / mbtree=1 / bitrate=640 / ratetol=1.0 / qcomp=0.60 / qpmin=0 / qpmax=69 / qpstep=4 / cplxblur=20.0 / qblur=0.5 / ip_ratio=1.40 / aq=1:1.00
Encoded date : UTC 2012-08-07 16:38:37
Tagged date : UTC 2012-08-06 17:12:26
Audio
ID : 2
Format : AAC
Format/Info : Advanced Audio Codec
Format profile : LC
Codec ID : 40
Duration : 23mn 9s
Bit rate mode : Variable
Bit rate : 128 Kbps
Maximum bit rate : 131 Kbps
Channel(s) : 2 channels
Channel positions : Front: L R
Sampling rate : 48.0 KHz
Compression mode : Lossy
Stream size : 21.2 MiB (15%)
Language : Russian
Encoded date : UTC 2012-08-06 17:12:26
Tagged date : UTC 2012-08-06 17:12:26

Скриншоты:



[torrentc.info]_t_4147557.torrent
Торрент: Зарегистрирован ·  [ 2017-02-21 08:24 ] ·  2b1a5dc159eca644fb35bf417d1258922a51a289

17 KB

Статус: проверено
Скачан: 0 раз
Размер: 2.98 GB
Оценка: 
(Голосов: 0)
Сказали спасибо: 0  Спасибо
Похожие темы
[Профиль]    [ЛС]
Показать сообщения:    
Ответить на тему

Текущее время: Сегодня 12:33

Часовой пояс: GMT + 7



Вы не можете начинать темы
Вы не можете отвечать на сообщения
Вы не можете редактировать свои сообщения
Вы не можете удалять свои сообщения
Вы не можете голосовать в опросах
Вы не можете прикреплять файлы к сообщениям
Вы можете скачивать файлы