Правосудие Стила / Справедливость Стила / Steele Justice (Роберт Борис / Robert Boris) [1987, США, боевик, HDRip] 2 AVO (Cергей Визгунов + Василий Горчаков) + VO ("Мир-дружба")

Reply to topic
DL-List and Torrent activity [Update пиров]
Size:  1.45 GB   |    Registered:  1 month 2 days   |    Completed:  0 times

Seeder not seen: Never

 
   
 
 
 
Author Message

КЭП

Post 18-Oct-2019 10:41

[Quote]

Правосудие Стила / Steele Justice
«When the police needed someone to stop the Vietnamese Mafia, there was only one choice...»
Страна: США
Жанр: боевик
Год выхода: 1987
Продолжительность: 01:36:44
Перевод: Авторский (одноголосый закадровый) Cергей Визгунов
Перевод 2: Авторский (одноголосый закадровый) Василий Горчаков
Перевод 3: Одноголосый, закадровый – "Мир-дружба"
Субтитры: нет
Режиссер: Роберт Борис / Robert Boris
В ролях: Мартин Коув, Села Уорд, Ронни Кокс, Берни Кейси, Джозеф Кампанелла, Сун-Тек Он, Жан Ган Бойд, Дэвид Фроман, Сара Дуглас
Описание: Ветеран войны во Вьетнаме расследует убийство своего соратника-вьетнамца и его семьи. Вина лежит на бывшем вьетнамском генерале, а ныне крупном американском бизнесмене-мафиози. Рукопашные бои, перестрелки, кровавые сцены делают развитие сюжета в фильме динамичным и напряженным.
Доп. информация: Дорожка с VO синхронизирована и наложена ale_x2008 при помощи Sony Vegas и VirtualDubMod.
За оцифрованную с VHS дорожку благодарим - xfiles
P . S . 01:33:17 - 01:33:36 - вставка с переводом В. Горчакова.


СЕМПЛ http://yadi.sk/i/mQoDsv_BZ3MS6w
Качество видео: HDRip [Steele.Justice.1987.BluRay.720р.4хRus.Ukr.Eng.TeamHD-Атлас31.mkv 11.46 GB]
Формат файла: AVI
Видео: 720x400 (1.80:1), 23.976 fps, XviD build 73 ~1551 kbps avg, 0.22 bit/pixel
Аудио: 48 kHz, AC3 Dolby Digital, 2/0 (L,R) ch, ~192 kbps Визгунов
Аудио 2: 48 kHz, AC3 Dolby Digital, 2/0 (L,R) ch, ~192 kbps Горчаков
Аудио 3: AC3 Dolby Digital, 48000Hz, 2/0 (L,R) ch (mono), 192 kbps avg VO

MediaInfo

Правосудие Стила - Steele Justice [by ale_x2008].avi
Format : AVI
Format/Info : Audio Video Interleave
File size : 1.45 GiB
Duration : 1 h 36 min
Overall bit rate : 2 148 kb/s
Movie name : Правосудие Стила - Steele Justice [by ale_x2008]
Director : by ale_x2008
Writing application : VirtualDubMod 1.5.10.2 (build 2540/release)
Copyright : Edich2
Comment :
Video
ID : 0
Format : MPEG-4 Visual
Format profile : Advanced Simple@L5
Format settings : BVOP1 / Custom Matrix
Format settings, BVOP : 1
Format settings, QPel : No
Format settings, GMC : No warppoints
Format settings, Matrix : Custom
Codec ID : XVID
Codec ID/Hint : XviD
Duration : 1 h 36 min
Bit rate : 1 552 kb/s
Width : 720 pixels
Height : 400 pixels
Display aspect ratio : 16:9
Frame rate : 23.976 (24000/1001) FPS
Color space : YUV
Chroma subsampling : 4:2:0
Bit depth : 8 bits
Scan type : Progressive
Compression mode : Lossy
Bits/(Pixel*Frame) : 0.225
Stream size : 1.05 GiB (72%)
Writing library : XviD 73
Audio #1
ID : 1
Format : AC-3
Format/Info : Audio Coding 3
Codec ID : 2000
Duration : 1 h 36 min
Bit rate mode : Constant
Bit rate : 192 kb/s
Channel(s) : 2 channels
Channel positions : Front: L R
Sampling rate : 48.0 kHz
Frame rate : 31.250 FPS (1536 SPF)
Bit depth : 16 bits
Compression mode : Lossy
Stream size : 133 MiB (9%)
Alignment : Split accross interleaves
Interleave, duration : 42 ms (1.00 video frame)
Interleave, preload duratio : 500 ms
Service kind : Complete Main
Audio #2
ID : 2
Format : AC-3
Format/Info : Audio Coding 3
Codec ID : 2000
Duration : 1 h 36 min
Bit rate mode : Constant
Bit rate : 192 kb/s
Channel(s) : 2 channels
Channel positions : Front: L R
Sampling rate : 48.0 kHz
Frame rate : 31.250 FPS (1536 SPF)
Bit depth : 16 bits
Compression mode : Lossy
Stream size : 133 MiB (9%)
Alignment : Split accross interleaves
Interleave, duration : 42 ms (1.00 video frame)
Interleave, preload duratio : 500 ms
Service kind : Complete Main
Audio #3
ID : 3
Format : AC-3
Format/Info : Audio Coding 3
Codec ID : 2000
Duration : 1 h 36 min
Bit rate mode : Constant
Bit rate : 192 kb/s
Channel(s) : 2 channels
Channel positions : Front: L R
Sampling rate : 48.0 kHz
Frame rate : 31.250 FPS (1536 SPF)
Bit depth : 16 bits
Compression mode : Lossy
Stream size : 133 MiB (9%)
Alignment : Split accross interleaves
Interleave, duration : 42 ms (1.00 video frame)
Interleave, preload duratio : 500 ms
Service kind : Complete Main

Скриншоты




[geo-torrent.biz]_t_4629424.torrent
Torrent: Registered ·  [ 2019-10-18 10:41 ] ·  e768698a50af1649ba7c7f740a778c81d167d67f

15 KB

Status: checked
Completed: 0 times
Size: 1.45 GB
Rating: 
(Votes: 0)
Say thanks: 0  Thanks
Похожие темы
[Profile]    [PM]
Display posts from previous:    
Reply to topic

The time now is: Today 14:22

All times are GMT + 7 Hours



You cannot post new topics in this forum
You cannot reply to topics in this forum
You cannot edit your posts in this forum
You cannot delete your posts in this forum
You cannot vote in polls in this forum
You cannot attach files in this forum
You can download files in this forum