Лилипуты и великаны / Три мира Гулливера / The 3 Worlds of Gulliver (Джек Шер / Jack Sher) [1960, США, Великобритания, фэнтези, приключения, семейный, DVDRip] VO

Reply to topic
DL-List and Torrent activity [Update пиров]
Size:  1.45 GB   |    Registered:  6 months 10 days   |    Completed:  1 time

Seeder not seen: 2 months 25 days

 
   
 
 
 
Author Message

Генри

Post 11-Aug-2019 11:46

[Quote]

Лилипуты и великаны / Три мира Гулливера / The 3 Worlds of Gulliver
«IN A WORLD AS DIFFERENT AS NIGHT AND DAY!»
Страна: США, Великобритания
Жанр: фэнтези, приключения, семейный
Год выхода: 1960
Продолжительность: 01:38:38
Перевод: Одноголосый закадровый
Субтитры: нет
Оригинальная аудиодорожка: английский
Режиссер: Джек Шер / Jack Sher
В ролях: Кервин Мэтьюз, Джо Морроу, Джун Торберн, Шерри Альберони, Грегуар Аслан, Бэйзил Сидни
Описание: Аннотация от alenavova
Первый мир Гулливера - условно говоря, наш. То есть Англия 18 столетия. Второй мир - страна Лилипутия, куда моряка Гулливера занесло после кораблекрушения. Третий мир - страна Бробдингнэг, где уже сам Гулливер превратился в лилипута по сравнению с местными жителями. Все экранное время делится пополам между приключениями Гулливера у карликов и у великанов. Великолепный семейный фильм.
Доп. информация: Дорожка с VO синхронизирована и наложена ale_x2008 при помощи Adobe Audition, Sony Vegas и VirtualDubMod.
За оцифрованную с VHS дорожку благодарим - alenavova


Сэмпл: http://yadi.sk/i/dXmYX7RHVWsqvQ
Качество видео: DVDRip
Формат файла: AVI
Видео: 640x480 (1.33:1), 23.976 fps, XviD build 50 ~1909 kbps avg, 0.26 bit/pixel
Аудио: AC3 Dolby Digital, 48000Hz 2/0 (L,R) ch (mono), 192 kbps avg

MediaInfo

Лилипуты и великаны - The 3 Worlds of Gulliver (by ale_X2008).aviFormat : AVIFormat/Info : Audio Video InterleaveFile size : 1.45 GiBDuration : 1 h 38 minOverall bit rate : 2 111 kb/sMovie name : The 3 Worlds of GulliverDirector : by ale_X2008Genre : Animation | Adventure | FamilyWriting application : VirtualDubMod 1.5.10.2 (build 2540/release)Copyright : Edich2Comment :
VideoID : 0Format : MPEG-4 VisualFormat profile : Advanced Simple@L5Format settings : BVOP2 / Custom MatrixFormat settings, BVOP : 2Format settings, QPel : NoFormat settings, GMC : No warppointsFormat settings, Matrix : CustomCodec ID : XVIDCodec ID/Hint : XviDDuration : 1 h 38 minBit rate : 1 910 kb/sWidth : 640 pixelsHeight : 480 pixelsDisplay aspect ratio : 4:3Frame rate : 23.976 (24000/1001) FPSColor space : YUVChroma subsampling : 4:2:0Bit depth : 8 bitsScan type : ProgressiveCompression mode : LossyBits/(Pixel*Frame) : 0.259Stream size : 1.32 GiB (90%)Writing library : XviD 1.2.1 (UTC 2008-12-04)
AudioID : 1Format : AC-3Format/Info : Audio Coding 3Codec ID : 2000Duration : 1 h 38 minBit rate mode : ConstantBit rate : 192 kb/sChannel(s) : 2 channelsChannel positions : Front: L RSampling rate : 48.0 kHzFrame rate : 31.250 FPS (1536 SPF)Bit depth : 16 bitsCompression mode : LossyStream size : 135 MiB (9%)Alignment : Split accross interleavesInterleave, duration : 42 ms (1.00 video frame)Interleave, preload duratio : 500 msService kind : Complete Main

Скриншоты




[geo-torrent.biz]_t_5764646.torrent
Torrent: Registered ·  [ 2019-08-11 11:46 ] ·  8c81ad3d854cb300c5d79a5974d7ca6547f4438b

15 KB

Status: checked
Completed: 1 times
Size: 1.45 GB
Rating: 
(Votes: 0)
Say thanks: 0  Thanks
Похожие темы
[Profile]    [PM]
Display posts from previous:    
Reply to topic

The time now is: Today 19:15

All times are GMT + 7 Hours



You cannot post new topics in this forum
You cannot reply to topics in this forum
You cannot edit your posts in this forum
You cannot delete your posts in this forum
You cannot vote in polls in this forum
You cannot attach files in this forum
You can download files in this forum