Второй шанс / Second Chances (Джеймс Фарго / James Fargo) [1998, США, Драма, DVDRip] DVO (SDI Media Russia) + Original Eng

Reply to topic
DL-List and Torrent activity [Update пиров]
Size:  1.47 GB   |    Registered:  6 months 11 days   |    Completed:  0 times

Seeder not seen: Never

 
   
 
 
 
Author Message

Кейт

Post 10-Aug-2019 18:59

[Quote]

Второй шанс / Second Chances
«A Story Of Understanding, Giving, And Love... Everyone Needs A Second Chance»
Страна: США
Жанр: Драма
Год выхода: 1998
Продолжительность: 01:43:04
Перевод: Профессиональный (двухголосый закадровый) SDI Media Russia
Субтитры: нет
Оригинальная аудиодорожка: английский
Режиссер: Джеймс Фарго / James Fargo
В ролях: Том Амандес, Изабель Глэссер, Келси Малруни, Терри Мур, Стюарт Уитман, Мадлен Зима,
Чарльз Шонесси, Эрика Хесс, Теодор Бикел, Ганс Хоус
Описание: Физическое и эмоциональное восстановление маленькой девочки после ДТП требует твердости её духа и духа её отца....
Доп. информация: Дорожка с DVO синхронизирована и наложена ale_x2008 при помощи Sony Vegas и VirtualDubMod.

Сэмпл: http://yadi.sk/i/hXqB-yT6PRqyug
Качество видео: DVDRip
Формат файла: AVI
Видео: XviD build 73, 640x480 (1.33:1), 23.976 fps, 1640 kbps avg, 0.22 bit/pixel
Аудио: AC3 Dolby Digital, 48000Hz, 2/0 (L,R) ch (stereo), 192 kbps avg
Аудио 2: AC3 Dolby Digital, 48000Hz, 2/0 (L,R) ch, 192 kbps avg

MediaInfo

Второй шанс - Second Chances (by ale_X2008).aviFormat : AVIFormat/Info : Audio Video InterleaveFile size : 1.47 GiBDuration : 1 h 43 minOverall bit rate : 2 039 kb/sWriting application : VirtualDubMod 1.5.10.2 (build 2540/release)Writing library : VirtualDubMod build 2540/release
VideoID : 0Format : MPEG-4 VisualFormat profile : Advanced Simple@L5Format settings : BVOP1 / Custom MatrixFormat settings, BVOP : 1Format settings, QPel : NoFormat settings, GMC : No warppointsFormat settings, Matrix : CustomCodec ID : XVIDCodec ID/Hint : XviDDuration : 1 h 43 minBit rate : 1 640 kb/sWidth : 640 pixelsHeight : 480 pixelsDisplay aspect ratio : 4:3Frame rate : 23.976 (24000/1001) FPSColor space : YUVChroma subsampling : 4:2:0Bit depth : 8 bitsScan type : ProgressiveCompression mode : LossyBits/(Pixel*Frame) : 0.223Stream size : 1.18 GiB (80%)Writing library : XviD 73
Audio #1ID : 1Format : AC-3Format/Info : Audio Coding 3Codec ID : 2000Duration : 1 h 43 minBit rate mode : ConstantBit rate : 192 kb/sChannel(s) : 2 channelsChannel positions : Front: L RSampling rate : 48.0 kHzFrame rate : 31.250 FPS (1536 SPF)Bit depth : 16 bitsCompression mode : LossyStream size : 142 MiB (9%)Alignment : Split accross interleavesInterleave, duration : 42 ms (1.00 video frame)Interleave, preload duratio : 500 msService kind : Complete Main
Audio #2ID : 2Format : AC-3Format/Info : Audio Coding 3Codec ID : 2000Duration : 1 h 43 minBit rate mode : ConstantBit rate : 192 kb/sChannel(s) : 2 channelsChannel positions : Front: L RSampling rate : 48.0 kHzFrame rate : 31.250 FPS (1536 SPF)Bit depth : 16 bitsCompression mode : LossyStream size : 142 MiB (9%)Alignment : Split accross interleavesInterleave, duration : 42 ms (1.00 video frame)Interleave, preload duratio : 500 msService kind : Complete Main

Скриншоты




[geo-torrent.biz]_t_5763296.torrent
Torrent: Registered ·  [ 2019-08-10 18:59 ] ·  64619c3a3c31e2bf154112fd99c8e0f4f4795284

15 KB

Status: checked
Completed: 0 times
Size: 1.47 GB
Rating: 
(Votes: 0)
Say thanks: 0  Thanks
Похожие темы
[Profile]    [PM]
Display posts from previous:    
Reply to topic

The time now is: Today 20:02

All times are GMT + 7 Hours



You cannot post new topics in this forum
You cannot reply to topics in this forum
You cannot edit your posts in this forum
You cannot delete your posts in this forum
You cannot vote in polls in this forum
You cannot attach files in this forum
You can download files in this forum