Мир сокровищ / Все сокровища мира / The World of Treasure / Foo gwai yan gaan (Стивен Ло / Stephen Lo) [1995, Гонконг, комедия, приключения, DVDRip] VO (Хоррор Мейкер)

Reply to topic
DL-List and Torrent activity [Update пиров]
Size:  1.36 GB   |    Registered:  6 months 14 days   |    Completed:  0 times

Seeder not seen: Never

 
   
 
 
 
Author Message

Мых

Post 06-Aug-2019 22:33

[Quote]

Мир сокровищ / Все сокровища мира / The World of Treasure / Foo gwai yan gaan
Страна: Гонконг
Жанр: комедия, приключения
Год выхода: 1995
Продолжительность: 01:27:15
Перевод: Одноголосый закадровый Хоррор Мейкер
Субтитры: Английские / Китайские (вшитые)
Режиссер: Стивен Ло / Stephen Lo
В ролях: Майкл Хуи, Энтони Вонг, Эрик Кот, Ян Лам, Ло Кар-Ин, Лю Кай-Чи, Чарли Чен, Марианна Чан, Фонг Юэ
Описание: В Гонконг возвращается мультимиллионер Чу Кунг – много лет назад он переехал в Южную Африку, где открыл прииск по добыче драгоценных камней, принесших ему богатство. На эту радостную новость, как мухи на сладкое, слетаются родственники Чу Кунга – его племянники Чой и Фат, кузен и незаконнорожденный сын. И у каждого есть свои планы на деньги богатенького дядюшки.....
Сэмпл: http://multi-up.com/1236941
Качество видео: DVDRip (Источник: none - DVD5)
Формат файла: AVI
Видео: XviD 73, 624x352, (16:9), 23,976 fps, 2037 Кбит/с, 8 бит
Аудио: Русский (АС3, 2 ch (Front: L R), 48,0 KHz, 192 Kbps)

MediaInfo

ОбщееПолное имя : D:\Фильмы на трекер\Все сокровища мира (комедия, приключения 1995 год).aviФормат файла : AVIФормат файла/Информация : Audio Video InterleaveРазмер файла : 1,36 ГбайтПродолжительность : 1 ч. 27 м.Общий поток : 2238 Кбит/секПрограмма кодирования : VirtualDubMod 1.5.10.3 | www.virtualdub-fr.org || (build 2550/release)Библиотека кодирования : VirtualDubMod build 2550/release
ВидеоИдентификатор : 0Формат файла : MPEG-4 VisualПрофиль формата : Advanced Simple@L5Параметр BVOP формата : 2Параметр QPel формата : НетПараметр GMC формата : Без точки переходаПараметр матрицы формата : ВыборочнаяИдентификатор кодека : XVIDИдентификатор кодека/Подсказка : XviDПродолжительность : 1 ч. 27 м.Битрейт : 2037 Кбит/секШирина : 624 пикселяВысота : 352 пикселяСоотношение сторон : 16:9Частота кадров : 23,976 (24000/1001) кадра/секЦветовое пространство : YUVСубдискретизация насыщенности : 4:2:0Битовая глубина : 8 битТип развёртки : ПрогрессивнаяМетод сжатия : С потерямиБит/(Пиксели*Кадры) : 0.387Размер потока : 1,24 Гбайт (91%)Библиотека кодирования : XviD 73
АудиоИдентификатор : 1Формат файла : AC-3Формат файла/Информация : Audio Coding 3Расширение режима : CM (complete main)Параметр Endianness формата : BigИдентификатор кодека : 2000Продолжительность : 1 ч. 27 м.Вид битрейта : ПостоянныйБитрейт : 192 Кбит/секКаналы : 2 каналаРасположение каналов : Front: L RЧастота : 48,0 КГцЧастота кадров : 31,250 кадров/сек (1536 spf)Метод сжатия : С потерямиРазмер потока : 120 Мбайт (9%)Выравнивание : Разделение по промежуткамПродолжительность промежутка : 42 мс. (1,00 видеокадр)Время предзагрузки промежутка : 500 мс.

Скриншот c названием фильма

Скриншоты



[geo-torrent.biz]_t_5756443.torrent
Torrent: Registered ·  [ 2019-08-06 22:30 ] ·  508276bc2c70ac41d066e93bbe1c6a537938ca37

14 KB

Status: checked
Completed: 0 times
Size: 1.36 GB
Rating: 
(Votes: 0)
Say thanks: 0  Thanks
Похожие темы
[Profile]    [PM]
Display posts from previous:    
Reply to topic

The time now is: Today 20:21

All times are GMT + 7 Hours



You cannot post new topics in this forum
You cannot reply to topics in this forum
You cannot edit your posts in this forum
You cannot delete your posts in this forum
You cannot vote in polls in this forum
You cannot attach files in this forum
You can download files in this forum