(Sludge Metal, Stoner Metal, Progressive Metal) [WEB] Liblikas - Mothers\' Finest - 2014, FLAC (tracks), lossless

Reply to topic
DL-List and Torrent activity [Update пиров]
Size:  159 MB   |    Registered:  6 months 14 days   |    Completed:  0 times

Seeder not seen: Never

 
   
 
 
 
Author Message

Генри

Post 06-Aug-2019 22:33

[Quote]

Liblikas / Mothers' Finest
Жанр: Sludge Metal, Stoner Metal, Progressive Metal
Носитель: WEB http://liblikas.bandcamp.com/album/mothers-finest
Год издания: 2014
Издатель (лейбл): self-released
Страна исполнителя (группы): Estonia
Аудиокодек: FLAC (*.flac)
Тип рипа: tracks
Продолжительность: 00:23:01
Источник: собственная покупка
Наличие сканов в содержимом раздачи: только обложка
Треклист:
1. Embryonic 03:04
2. Stick To Your Guns! 04:42
3. Into The Shrine 06:08
4. Spellbound 09:05
INFO

Audiochecker

AUDIOCHECKER v2.0 beta (build 457) - by Dester - opdester@freemail.hu~~~~~~~~~~~~~~~~~~~~~~~~~~~~~~~~~~-=== DO NOT EDIT THIS FILE! ===-
Path: ...\Liblikas - Mothers Finest - 2014
1 -=- Liblikas - Mothers' Finest - 01 Embryonic.flac -=- CDDA (100%)2 -=- Liblikas - Mothers' Finest - 02 Stick To Your Guns!.flac -=- CDDA (100%)3 -=- Liblikas - Mothers' Finest - 03 Into The Shrine.flac -=- CDDA (100%)4 -=- Liblikas - Mothers' Finest - 04 Spellbound.flac -=- CDDA (100%)
Summary 100.00% CDDA
262448612

DR6

foobar2000 1.5 beta 6 / Dynamic Range Meter 1.1.1log date: 2019-07-19 22:03:53
--------------------------------------------------------------------------------Analyzed: Liblikas / Mothers' Finest--------------------------------------------------------------------------------
DR Peak RMS Duration Track--------------------------------------------------------------------------------DR6 -0.20 dB -8.38 dB 3:04 01-EmbryonicDR5 -0.20 dB -6.41 dB 4:43 02-Stick To Your Guns!DR6 -0.20 dB -7.07 dB 6:08 03-Into The ShrineDR6 -0.20 dB -7.62 dB 9:06 04-Spellbound--------------------------------------------------------------------------------
Number of tracks: 4Official DR value: DR6
Samplerate: 44100 HzChannels: 2Bits per sample: 16Bitrate: 917 kbpsCodec: FLAC================================================================================

Об исполнителе (группе)

Psychedelic-prog-stoner rock band from Tallinn, Estonia focusing on melting faces and warming hearts.

Об альбоме (сборнике)

Engineered, mixed & mastered by Ģirts Laumanis @ Hodila Records
Artwork by Maari Soekov

Состав

Temo Saarna
Henrik Harak
Mihkel-Madis Rebane
Joosep Käsper
Oliver Aunver


[geo-torrent.biz]_t_5757239.torrent
Torrent: Registered ·  [ 2019-08-06 22:30 ] ·  d27a3c3a981f7868fcdae8f0b6cc0fc08380891f

13 KB

Status: checked
Completed: 0 times
Size: 159 MB
Rating: 
(Votes: 0)
Say thanks: 0  Thanks
Похожие темы
[Profile]    [PM]
Display posts from previous:    
Reply to topic

The time now is: Today 18:31

All times are GMT + 7 Hours



You cannot post new topics in this forum
You cannot reply to topics in this forum
You cannot edit your posts in this forum
You cannot delete your posts in this forum
You cannot vote in polls in this forum
You cannot attach files in this forum
You can download files in this forum