Смертельный транс / Death Trance (Юджи Симомура / Yûji Shimomura) [2005, США, Япония, боевик, приключения, фэнтези, HDRip] AVO (Андрей Дольский)

Reply to topic
DL-List and Torrent activity [Update пиров]
Size:  745 MB   |    Registered:  7 months 15 days   |    Completed:  0 times

Seeder not seen: Never

 
   
 
 
 
Author Message

Мых

Post 05-Jul-2019 20:21

[Quote]

Смертельный транс / Death Trance
Страна: США, Япония
Жанр: боевик, приключения, фэнтези
Год выхода: 2005
Продолжительность: 01:29:08
Перевод: Авторский (одноголосый закадровый) Андрей Дольский
Субтитры: нет
Режиссер: Юджи Симомура / Yûji Shimomura
В ролях: Кэнтаро Сигал, Так Сакагучи, Такамаса Суга, Бэн Хиура, Йоко Фудзита, Хонока Асада, Юки Текучи, Чак Джонсон, Осаму Такахаши
Описание: Мастер-меча выкрал шкатулку из священного Храма Тёгун, в которой уже давно в заточении находится "Богиня Разрушения". Мастер-меча хочет выпустить её, чтобы сразиться, но не знает как это сделать и отправляется в путешествие, чтобы найти секрет. В это самое время один из монахов-послушников Храма отправляется в погоню за реликвией, чтобы вернуть реликт на место и спасти мир...

Сэмпл: http://multi-up.com/1236098
Качество видео: HDRip (Источник: none BDRip 1080p)
Формат файла: AVI
Видео: XviD 73, 656x336, (1,95:1), 23.976 fps, 968 Кбит/с, 8 бит, 0.18 bit/pixel
Аудио: Русский (АС3, 2 ch (Front: L R), 48,0 KHz, 192 Kbps)

MediaInfo

ОбщееПолное имя : D:\Фильмы на трекер\Смертельный транс (боевик, приключения, фэнтези 2005 год).aviФормат файла : AVIФормат файла/Информация : Audio Video InterleaveРазмер файла : 745 МбайтПродолжительность : 1 ч. 29 м.Общий поток : 1169 Кбит/секПрограмма кодирования : VirtualDubMod 1.5.10.3 | www.virtualdub-fr.org || (build 2550/release)Библиотека кодирования : VirtualDubMod build 2550/release
ВидеоИдентификатор : 0Формат файла : MPEG-4 VisualПрофиль формата : Advanced Simple@L5Параметр BVOP формата : 2Параметр QPel формата : НетПараметр GMC формата : Без точки переходаПараметр матрицы формата : ВыборочнаяИдентификатор кодека : XVIDИдентификатор кодека/Подсказка : XviDПродолжительность : 1 ч. 29 м.Битрейт : 968 Кбит/секШирина : 656 пикселейВысота : 336 пикселейСоотношение сторон : 1,952Частота кадров : 23,976 (23976/1000) кадра/секЦветовое пространство : YUVСубдискретизация насыщенности : 4:2:0Битовая глубина : 8 битТип развёртки : ПрогрессивнаяМетод сжатия : С потерямиБит/(Пиксели*Кадры) : 0.183Размер потока : 617 Мбайт (83%)Библиотека кодирования : XviD 73
АудиоИдентификатор : 1Формат файла : AC-3Формат файла/Информация : Audio Coding 3Расширение режима : CM (complete main)Параметр Endianness формата : BigИдентификатор кодека : 2000Продолжительность : 1 ч. 29 м.Вид битрейта : ПостоянныйБитрейт : 192 Кбит/секКаналы : 2 каналаРасположение каналов : Front: L RЧастота : 48,0 КГцЧастота кадров : 31,250 кадров/сек (1536 spf)Метод сжатия : С потерямиРазмер потока : 122 Мбайт (16%)Выравнивание : Разделение по промежуткамПродолжительность промежутка : 42 мс. (1,00 видеокадр)Время предзагрузки промежутка : 500 мс.

Скриншот c названием фильма

Скриншоты

Источник: nonehttp:///forum/viewtopic.php?t=205622 Справа скрины моего рипа





[geo-torrent.biz]_t_5752248.torrent
Torrent: Registered ·  [ 2019-07-05 20:21 ] ·  eb023346722243d1a929b60c2bf6c93a9434ed36

15 KB

Status: checked
Completed: 0 times
Size: 745 MB
Rating: 
(Votes: 0)
Say thanks: 0  Thanks
Похожие темы
[Profile]    [PM]
Display posts from previous:    
Reply to topic

The time now is: Today 19:37

All times are GMT + 7 Hours



You cannot post new topics in this forum
You cannot reply to topics in this forum
You cannot edit your posts in this forum
You cannot delete your posts in this forum
You cannot vote in polls in this forum
You cannot attach files in this forum
You can download files in this forum