(Free Folk, Free Improvisation) [CD] Ashley Paul - Heat Source [l. Important Records] - 2014, FLAC (tracks+.cue), lossless

Reply to topic
DL-List and Torrent activity [Update пиров]
Size:  161 MB   |    Registered:  7 months 17 days   |    Completed:  0 times

Seeder not seen: Never

 
   
 
 
 
Author Message

Пушистый

Post 04-Jul-2019 18:12

[Quote]

Ashley Paul"Heat Source"2014
Ashley Paul [born] • United States

.

Жанры • Free Folk | Free Improvisation ⚫ Источник • Redacted
Издатель • Important (USA) ⚫ № по каталогу • IMPREC 413
Кодек • FLAC (*.flac) ⚫ Тип рипа • tracks+.cue ⚫ Носитель • CD
.
Track Listing [00:35:14]
01. Sound and Soft .(04:10)
02. Rain Away .(02:16)
03. I'm in You .(03:17)
04. Heat Source .(04:38)
05. Embers .(04:23)
06. Feet on Legs .(04:00)
07. London February 16 .(04:53)
08. Drop Me .(03:03)
09. Clarineterlude .(00:25)
10. Lie Awake .(04:15)

+ / -Лог извлечения

Exact Audio Copy V1.1 from 23. June 2015
EAC extraction logfile from 11. February 2018, 21:03
Ashley Paul / Heat Source
Used drive : ASUS DRW-24F1ST a Adapter: 1 ID: 0
Read mode : SecureUtilize accurate stream : YesDefeat audio cache : YesMake use of C2 pointers : No
Read offset correction : 6Overread into Lead-In and Lead-Out : NoFill up missing offset samples with silence : YesDelete leading and trailing silent blocks : NoNull samples used in CRC calculations : YesUsed interface : Native Win32 interface for Win NT & 2000Gap handling : Appended to previous track
Used output format : User Defined EncoderSelected bitrate : 896 kBit/sQuality : HighAdd ID3 tag : NoCommand line compressor : C:\EAC\Flac\flac.exeAdditional command line options : -8 -e -V -T "ARTIST=%artist%" -T "TITLE=%title%" -T "ALBUM=%albumtitle%" -T "DATE=%year%" -T "TRACKNUMBER=%tracknr%" -T "GENRE=%genre%" -T "PERFORMER=%albuminterpret%" -T "COMPOSER=%composer%" %haslyrics%--tag-from-file=LYRICS="%lyricsfile%"%haslyrics% -T "ALBUMARTIST=%albumartist%" -T "DISCNUMBER=%cdnumber%" -T "TOTALDISCS=%totalcds%" -T "TOTALTRACKS=%numtracks%" -T "COMMENT=%comment%" %source% -o %dest%
TOC of the extracted CD
Track | Start | Length | Start sector | End sector --------------------------------------------------------- 1 | 0:00.00 | 4:09.46 | 0 | 18720 2 | 4:09.46 | 2:15.56 | 18721 | 28901 3 | 6:25.27 | 3:16.05 | 28902 | 43606 4 | 9:41.32 | 4:37.12 | 43607 | 64393 5 | 14:18.44 | 4:22.19 | 64394 | 84062 6 | 18:40.63 | 3:59.45 | 84063 | 102032 7 | 22:40.33 | 4:52.40 | 102033 | 123972 8 | 27:32.73 | 3:02.40 | 123973 | 137662 9 | 30:35.38 | 0:24.14 | 137663 | 139476 10 | 30:59.52 | 4:14.14 | 139477 | 158540
Track 1
Filename C:\EAC\ripped\Ashley Paul - Heat Source\01 - Sound and Soft.wav
Pre-gap length 0:00:02.00
Peak level 96.9 % Extraction speed 1.7 X Track quality 100.0 % Test CRC 32031992 Copy CRC 32031992 Accurately ripped (confidence 2) [C756A3DB] (AR v2) Copy OK
Track 2
Filename C:\EAC\ripped\Ashley Paul - Heat Source\02 - Rain Away.wav
Peak level 96.8 % Extraction speed 1.4 X Track quality 99.9 % Test CRC 922C2CFE Copy CRC 922C2CFE Accurately ripped (confidence 2) [7A864BD7] (AR v2) Copy OK
Track 3
Filename C:\EAC\ripped\Ashley Paul - Heat Source\03 - I'm In You.wav
Peak level 96.9 % Extraction speed 1.9 X Track quality 100.0 % Test CRC 67A71E9D Copy CRC 67A71E9D Accurately ripped (confidence 2) [502A7708] (AR v2) Copy OK
Track 4
Filename C:\EAC\ripped\Ashley Paul - Heat Source\04 - Heat Source.wav
Peak level 97.0 % Extraction speed 2.2 X Track quality 100.0 % Test CRC EF2E9690 Copy CRC EF2E9690 Accurately ripped (confidence 2) [40D46C06] (AR v2) Copy OK
Track 5
Filename C:\EAC\ripped\Ashley Paul - Heat Source\05 - Embers.wav
Peak level 97.6 % Extraction speed 2.0 X Track quality 99.9 % Test CRC 0F7C49EC Copy CRC 0F7C49EC Accurately ripped (confidence 2) [111A93F2] (AR v2) Copy OK
Track 6
Filename C:\EAC\ripped\Ashley Paul - Heat Source\06 - Feet on Legs.wav
Peak level 97.1 % Extraction speed 2.4 X Track quality 100.0 % Test CRC 0B3F53CD Copy CRC 0B3F53CD Accurately ripped (confidence 2) [AFFB7F67] (AR v2) Copy OK
Track 7
Filename C:\EAC\ripped\Ashley Paul - Heat Source\07 - London February 16.wav
Peak level 98.4 % Extraction speed 2.6 X Track quality 100.0 % Test CRC 09BDFB21 Copy CRC 09BDFB21 Accurately ripped (confidence 2) [B5103876] (AR v2) Copy OK
Track 8
Filename C:\EAC\ripped\Ashley Paul - Heat Source\08 - Drop Me.wav
Peak level 100.0 % Extraction speed 2.6 X Track quality 100.0 % Test CRC 4F78936D Copy CRC 4F78936D Accurately ripped (confidence 2) [A5148E16] (AR v2) Copy OK
Track 9
Filename C:\EAC\ripped\Ashley Paul - Heat Source\09 - Clarineterlude.wav
Peak level 97.6 % Extraction speed 1.2 X Track quality 100.0 % Test CRC 1998BBA8 Copy CRC 1998BBA8 Accurately ripped (confidence 2) [A8AF19EB] (AR v2) Copy OK
Track 10
Filename C:\EAC\ripped\Ashley Paul - Heat Source\10 - Lie Awake.wav
Peak level 100.0 % Extraction speed 2.8 X Track quality 100.0 % Test CRC 723BBE28 Copy CRC 723BBE28 Accurately ripped (confidence 2) [457481AC] (AR v2) Copy OK
All tracks accurately ripped
No errors occurred
End of status report
==== Log checksum C0A9B6A56000F70688E1430336E2F2A978D6D5DBEBC3F6369D1287BEA613697E ====

индексная карта

REM GENRE "Free Folk"REM DATE 2014REM DISCID 7F08410AREM COMMENT "ExactAudioCopy v1.1"PERFORMER "Ashley Paul"TITLE "Heat Source"FILE "01. Sound and Soft.wav" WAVE TRACK 01 AUDIO TITLE "Sound and Soft" PERFORMER "Ashley Paul" INDEX 01 00:00:00FILE "02. Rain Away.wav" WAVE TRACK 02 AUDIO TITLE "Rain Away" PERFORMER "Ashley Paul" INDEX 01 00:00:00FILE "03. I'm in You.wav" WAVE TRACK 03 AUDIO TITLE "I'm in You" PERFORMER "Ashley Paul" INDEX 01 00:00:00FILE "04. Heat Source.wav" WAVE TRACK 04 AUDIO TITLE "Heat Source" PERFORMER "Ashley Paul" INDEX 01 00:00:00FILE "05. Embers.wav" WAVE TRACK 05 AUDIO TITLE "Embers" PERFORMER "Ashley Paul" INDEX 01 00:00:00FILE "06. Feet on Legs.wav" WAVE TRACK 06 AUDIO TITLE "Feet on Legs" PERFORMER "Ashley Paul" INDEX 01 00:00:00FILE "07. London February 16.wav" WAVE TRACK 07 AUDIO TITLE "London February 16" PERFORMER "Ashley Paul" INDEX 01 00:00:00FILE "08. Drop Me.wav" WAVE TRACK 08 AUDIO TITLE "Drop Me" PERFORMER "Ashley Paul" INDEX 01 00:00:00FILE "09. Clarineterlude.wav" WAVE TRACK 09 AUDIO TITLE "Clarineterlude" PERFORMER "Ashley Paul" INDEX 01 00:00:00FILE "10. Lie Awake.wav" WAVE TRACK 10 AUDIO TITLE "Lie Awake" PERFORMER "Ashley Paul" INDEX 01 00:00:00


[geo-torrent.biz]_t_5751741.torrent
Torrent: Registered ·  [ 2019-07-04 18:12 ] ·  9b388b2c4ec038173fd193b417194eed56a16c5c

14 KB

Status: checked
Completed: 0 times
Size: 161 MB
Rating: 
(Votes: 0)
Say thanks: 0  Thanks
Похожие темы
[Profile]    [PM]
Display posts from previous:    
Reply to topic

The time now is: Today 18:14

All times are GMT + 7 Hours



You cannot post new topics in this forum
You cannot reply to topics in this forum
You cannot edit your posts in this forum
You cannot delete your posts in this forum
You cannot vote in polls in this forum
You cannot attach files in this forum
You can download files in this forum