[DTSCD][UP] Кар-Мэн - Кармания - 1992 (Pop, Disco, Techno)

Reply to topic
DL-List and Torrent activity [Update пиров]
Size:  404 MB   |    Registered:  5 months   |    Completed:  0 times

Seeder not seen: Never

 
   
 
 
 
Author Message

Генри

Post 19-May-2019 02:38

[Quote]

Кар-Мэн - Кармания DTS UPMix
Формат файла записи/Источник записи: [DTSCD][UP]
Наличие водяных знаков: Нет
Год издания/переиздания диска: 1992
Жанр: Pop, Disco, Techno
Издатель (лейбл): Gala Records
Наличие сканов в содержимом раздачи: Да (сканы)
Треклист:
01. Bad Russians
02. В Багдаде всё спокойно
03. Бомбей буги
04. Coribian Girl
05. Сан-Франциско
06. Филиппинская колдунья
07. Робин Гуд
08. День рождения в Монте-Карло
09. Парень из Африки
Формат файла: WAV(*.wav)
Тип рипа: tracks
Разрядность: 16/44,1
Формат файла: DTS
Количество каналов: 5.1
Битрейт аудио: 1411 kbps

DR-лог

foobar2000 1.4.2 / Dynamic Range Meter 1.1.1log date: 2019-05-14 19:56:30
--------------------------------------------------------------------------------Analyzed: ? / ?--------------------------------------------------------------------------------
DR Peak RMS Duration Track--------------------------------------------------------------------------------DR11 -0.17 dB -13.00 dB 4:33 ?-01. Кар-Мэн - Bad Russians DTSDR11 -0.34 dB -13.00 dB 4:09 ?-02. Кар-Мэн - В Багдаде всё спокойно DTSDR11 -0.11 dB -13.00 dB 3:37 ?-03. Кар-Мэн - Бомбей буги DTSDR11 -0.05 dB -13.00 dB 4:40 ?-04. Кар-Мэн - Caribbean Girl DTSDR11 -0.15 dB -13.00 dB 4:51 ?-05. Кар-Мэн - Сан-Франциско DTSDR11 -0.10 dB -13.00 dB 4:41 ?-06. Кар-Мэн - Филиппинская колдунья DTSDR11 -0.44 dB -13.00 dB 4:29 ?-07. Кар-Мэн - Робин Гуд DTSDR11 -0.03 dB -13.00 dB 4:53 ?-08. Кар-Мэн - День рождения в Монте-Карло DTSDR11 -0.02 dB -13.00 dB 4:01 ?-09. Кар-Мэн - Парень из Африки DTS--------------------------------------------------------------------------------
Number of tracks: 9Official DR value: DR11
Samplerate: 44100 HzChannels: 6Bits per sample: 16Bitrate: 1411 kbpsCodec: DTS================================================================================
Источник (релизер):Оригинальный CD
Доп. информация: DJ S.A.W. DTS Upmix
Метод получения апмикса:
ручное выделение фазо-частотных фрагментов фонограммы с помощью функции CCE Adobe Audition
мультиканальный мастеринг – Аdobe Audition (встроенными эффектами и плагинами Waves, iZotope,
Starplugs и т.п.)


[geo-torrent.biz]_t_5733637.torrent
Torrent: Registered ·  [ 2019-05-19 02:38 ] ·  1432d397554bd8802f957017662c20afd6cb990a

17 KB

Status: checked
Completed: 0 times
Size: 404 MB
Rating: 
(Votes: 0)
Say thanks: 1  Thanks   (list)
Похожие темы
[Profile]    [PM]
Display posts from previous:    
Reply to topic

The time now is: Today 06:57

All times are GMT + 7 Hours



You cannot post new topics in this forum
You cannot reply to topics in this forum
You cannot edit your posts in this forum
You cannot delete your posts in this forum
You cannot vote in polls in this forum
You cannot attach files in this forum
You can download files in this forum