(Pop, Chanson, Synthpop) [CD] Andy Bell (Voice of Erasure) - Torsten In Queereteria (Deluxe Edition) - 2019, FLAC (tracks+.cue), lossless

Reply to topic
DL-List and Torrent activity [Update пиров]
Size:  1.28 GB   |    Registered:  5 months 5 days   |    Completed:  0 times

Seeder not seen: Never

 
   
 
 
 
Author Message

Кейт

Post 12-May-2019 18:57

[Quote]

Andy Bell / Torsten In Queereteria (Deluxe Edition)
Жанр: Pop, Chanson, Synthpop
Носитель: CD
Страна-производитель диска (релиза): UK
Год издания: 2019
Издатель (лейбл): Strike Force Entertainment
Номер по каталогу: SFEK 078
Страна исполнителя (группы): UK
Аудиокодек: FLAC (*.flac)
Тип рипа: tracks+.cue
Продолжительность: 70:25
Источник: собственный рип
Наличие сканов в содержимом раздачи: да
Треклист:
Act One : Remembrance, Youth And Beauty
01. A Hundred Years Plus Today (04:52)
02. You Stampede an Open Wound (01:53)
03. Lowland Lowriders (03:10)
04. I Am of the Sea (04:15)
Act Two : The Hedonism And The Hurting
05. Cabaret Awayday (05:34)
06. Queereteria (06:03)
07. If We Want to Drink a LittleHazel O’Connor (02:29)
Act Three : Bitter Regrets
08. Thou Shalt Be My Vibe (05:24)
09. Money with Menaces (05:06)
10. Let's Be Sober Another Time (06:23)
11. Come and Taste My Breakdown (01:10)
Act Four : To Mourn And To Miss
12. To Know Good Men from Perverts (06:12)
13. We Hadn't Slept for Twenty Years (05:15)
14. Silence Is Golden (04:48)
15. Not Opting Out (03:38)
Bonus Track
16. I Don't Like (Bronski Beat Remix Edit) (4:06)

Лог создания рипа

Exact Audio Copy V1.3 from 2. September 2016
EAC extraction logfile from 30. April 2019, 22:15
Andy Bell / Torsten In Queereteria (Deluxe Edition)
Used drive : PIONEER DVD-RW DVR-221L Adapter: 1 ID: 1
Read mode : SecureUtilize accurate stream : YesDefeat audio cache : YesMake use of C2 pointers : No
Read offset correction : 6Overread into Lead-In and Lead-Out : NoFill up missing offset samples with silence : YesDelete leading and trailing silent blocks : NoNull samples used in CRC calculations : YesUsed interface : Native Win32 interface for Win NT & 2000Gap handling : Appended to previous track
Used output format : User Defined EncoderSelected bitrate : 1024 kBit/sQuality : HighAdd ID3 tag : NoCommand line compressor : C:\Program Files (x86)\Exact Audio Copy\FLAC\FLAC.EXEAdditional command line options : -6 -V -T "COMMENT=Ripped for RRC" -T "ARTIST=%artist%" -T "TITLE=%title%" -T "ALBUM=%albumtitle%" -T "DATE=%year%" -T "TRACKNUMBER=%tracknr%" -T "GENRE=%genre%" -T "BAND=%albuminterpret%" -T "ALBUMARTIST=%albuminterpret%" -T "COMPOSER=%composer%" %haslyrics%--tag-from-file=LYRICS="%lyricsfile%"%haslyrics% -T "DISCNUMBER=%cdnumber%" -T "TOTALDISCS=%totalcds%" -T "TOTALTRACKS=%numtracks%" %hascover%--picture="%coverfile%"%hascover% %source%
TOC of the extracted CD
Track | Start | Length | Start sector | End sector --------------------------------------------------------- 1 | 0:00.00 | 4:52.13 | 0 | 21912 2 | 4:52.13 | 1:53.57 | 21913 | 30444 3 | 6:45.70 | 3:10.65 | 30445 | 44759 4 | 9:56.60 | 4:15.05 | 44760 | 63889 5 | 14:11.65 | 5:34.23 | 63890 | 88962 6 | 19:46.13 | 6:03.01 | 88963 | 116188 7 | 25:49.14 | 2:29.60 | 116189 | 127423 8 | 28:18.74 | 5:24.66 | 127424 | 151789 9 | 33:43.65 | 5:06.27 | 151790 | 174766 10 | 38:50.17 | 6:23.37 | 174767 | 203528 11 | 45:13.54 | 1:10.34 | 203529 | 208812 12 | 46:24.13 | 6:12.29 | 208813 | 236741 13 | 52:36.42 | 5:15.67 | 236742 | 260433 14 | 57:52.34 | 4:48.73 | 260434 | 282106 15 | 62:41.32 | 3:37.61 | 282107 | 298442 16 | 66:19.18 | 4:06.18 | 298443 | 316910
Track 1
Filename E:\RRCLtd Rip\01-A Hundred Years Plus Today.wav
Pre-gap length 0:00:02.00
Peak level 97.7 % Extraction speed 2.3 X Track quality 99.9 % Test CRC 736D0111 Copy CRC 736D0111 Track not present in AccurateRip database Copy OK
Track 2
Filename E:\RRCLtd Rip\02-You Stampede An Open Wound.wav
Peak level 97.7 % Extraction speed 2.6 X Track quality 100.0 % Test CRC 0A02FEC3 Copy CRC 0A02FEC3 Track not present in AccurateRip database Copy OK
Track 3
Filename E:\RRCLtd Rip\03-Lowland Lowriders.wav
Peak level 97.7 % Extraction speed 2.3 X Track quality 99.9 % Test CRC F0FAA917 Copy CRC F0FAA917 Track not present in AccurateRip database Copy OK
Track 4
Filename E:\RRCLtd Rip\04-I Am Of The Sea.wav
Peak level 97.7 % Extraction speed 3.4 X Track quality 100.0 % Test CRC 57C17FE2 Copy CRC 57C17FE2 Track not present in AccurateRip database Copy OK
Track 5
Filename E:\RRCLtd Rip\05-Cabaret Awayday.wav
Peak level 97.7 % Extraction speed 3.1 X Track quality 99.9 % Test CRC B21E26A7 Copy CRC B21E26A7 Track not present in AccurateRip database Copy OK
Track 6
Filename E:\RRCLtd Rip\06-Queereteria.wav
Peak level 97.7 % Extraction speed 4.2 X Track quality 100.0 % Test CRC 5870DBA1 Copy CRC 5870DBA1 Track not present in AccurateRip database Copy OK
Track 7
Filename E:\RRCLtd Rip\07-If We Want To Drink A Little.wav
Peak level 97.7 % Extraction speed 3.8 X Track quality 100.0 % Test CRC AA56BC95 Copy CRC AA56BC95 Track not present in AccurateRip database Copy OK
Track 8
Filename E:\RRCLtd Rip\08-Thou Shalt Be My Vibe.wav
Peak level 97.7 % Extraction speed 4.5 X Track quality 100.0 % Test CRC 238E05B5 Copy CRC 238E05B5 Track not present in AccurateRip database Copy OK
Track 9
Filename E:\RRCLtd Rip\09-Money With Menaces.wav
Peak level 97.7 % Extraction speed 4.7 X Track quality 100.0 % Test CRC BFE6AB8E Copy CRC BFE6AB8E Track not present in AccurateRip database Copy OK
Track 10
Filename E:\RRCLtd Rip\10-Let's Be Sober Another Time.wav
Peak level 97.7 % Extraction speed 5.0 X Track quality 100.0 % Test CRC 05041C7A Copy CRC 05041C7A Track not present in AccurateRip database Copy OK
Track 11
Filename E:\RRCLtd Rip\11-Come And Taste My Breakdown.wav
Peak level 97.7 % Extraction speed 3.7 X Track quality 100.0 % Test CRC 404397DC Copy CRC 404397DC Track not present in AccurateRip database Copy OK
Track 12
Filename E:\RRCLtd Rip\12-To Know Good Men From Perverts.wav
Peak level 97.7 % Extraction speed 5.3 X Track quality 100.0 % Test CRC AA61DEA3 Copy CRC AA61DEA3 Track not present in AccurateRip database Copy OK
Track 13
Filename E:\RRCLtd Rip\13-We Hadn't Slept For Twenty Years.wav
Peak level 97.7 % Extraction speed 5.5 X Track quality 100.0 % Test CRC 8989CFCE Copy CRC 8989CFCE Track not present in AccurateRip database Copy OK
Track 14
Filename E:\RRCLtd Rip\14-Silence Is Golden.wav
Peak level 97.7 % Extraction speed 5.6 X Track quality 100.0 % Test CRC 94708074 Copy CRC 94708074 Track not present in AccurateRip database Copy OK
Track 15
Filename E:\RRCLtd Rip\15-Not Opting Out.wav
Peak level 97.7 % Extraction speed 4.1 X Track quality 99.9 % Test CRC 4C58DF97 Copy CRC 4C58DF97 Track not present in AccurateRip database Copy OK
Track 16
Filename E:\RRCLtd Rip\16-I Don't Like (Bronski Beat Remix Edit).wav
Peak level 96.6 % Extraction speed 5.7 X Track quality 100.0 % Test CRC 8130F7B7 Copy CRC 8130F7B7 Track not present in AccurateRip database Copy OK
None of the tracks are present in the AccurateRip database
No errors occurred
End of status report
---- CUETools DB Plugin V2.1.6
[CTDB TOCID: XAMTKB_q5jek0XHdi659BdLQiuM-] foundSubmit result: XAMTKB_q5jek0XHdi659BdLQiuM- has been confirmedTrack | CTDB Status 1 | (3/3) Accurately ripped 2 | (3/3) Accurately ripped 3 | (3/3) Accurately ripped 4 | (3/3) Accurately ripped 5 | (3/3) Accurately ripped 6 | (3/3) Accurately ripped 7 | (3/3) Accurately ripped 8 | (3/3) Accurately ripped 9 | (3/3) Accurately ripped 10 | (3/3) Accurately ripped 11 | (3/3) Accurately ripped 12 | (3/3) Accurately ripped 13 | (3/3) Accurately ripped 14 | (3/3) Accurately ripped 15 | (3/3) Accurately ripped 16 | (3/3) Accurately ripped
==== Log checksum 84021F5404E44BE0E2FAF00F31EDB52A5D84877404948EE2AD3ADE6423CBB298 ====

Содержание индексной карты (.CUE)

REM GENRE PopREM DATE 2019REM DISCID EC108110REM COMMENT "ExactAudioCopy v1.3"PERFORMER "Andy Bell"TITLE "Torsten In Queereteria (Deluxe Edition)"REM COMPOSER "Barney Ashton-Bullock & Christopher Frost"FILE "01-A Hundred Years Plus Today.wav" WAVE TRACK 01 AUDIO TITLE "A Hundred Years Plus Today" PERFORMER "Andy Bell" REM COMPOSER "Barney Ashton-Bullock & Christopher Frost" INDEX 01 00:00:00FILE "02-You Stampede An Open Wound.wav" WAVE TRACK 02 AUDIO TITLE "You Stampede An Open Wound" PERFORMER "Andy Bell" REM COMPOSER "Barney Ashton-Bullock & Christopher Frost" INDEX 01 00:00:00FILE "03-Lowland Lowriders.wav" WAVE TRACK 03 AUDIO TITLE "Lowland Lowriders" PERFORMER "Andy Bell" REM COMPOSER "Barney Ashton-Bullock & Christopher Frost" INDEX 01 00:00:00FILE "04-I Am Of The Sea.wav" WAVE TRACK 04 AUDIO TITLE "I Am Of The Sea" PERFORMER "Andy Bell" REM COMPOSER "Barney Ashton-Bullock & Christopher Frost" INDEX 01 00:00:00FILE "05-Cabaret Awayday.wav" WAVE TRACK 05 AUDIO TITLE "Cabaret Awayday" PERFORMER "Andy Bell" REM COMPOSER "Barney Ashton-Bullock & Christopher Frost" INDEX 01 00:00:00FILE "06-Queereteria.wav" WAVE TRACK 06 AUDIO TITLE "Queereteria" PERFORMER "Andy Bell" REM COMPOSER "Barney Ashton-Bullock & Christopher Frost" INDEX 01 00:00:00FILE "07-If We Want To Drink A Little.wav" WAVE TRACK 07 AUDIO TITLE "If We Want To Drink A Little" PERFORMER "Andy Bell feat. Hazel O'Connor" REM COMPOSER "Barney Ashton-Bullock & Christopher Frost" INDEX 01 00:00:00FILE "08-Thou Shalt Be My Vibe.wav" WAVE TRACK 08 AUDIO TITLE "Thou Shalt Be My Vibe" PERFORMER "Andy Bell" REM COMPOSER "Barney Ashton-Bullock & Christopher Frost" INDEX 01 00:00:00FILE "09-Money With Menaces.wav" WAVE TRACK 09 AUDIO TITLE "Money With Menaces" PERFORMER "Andy Bell" REM COMPOSER "Barney Ashton-Bullock & Christopher Frost" INDEX 01 00:00:00FILE "10-Let's Be Sober Another Time.wav" WAVE TRACK 10 AUDIO TITLE "Let's Be Sober Another Time" PERFORMER "Andy Bell" REM COMPOSER "Barney Ashton-Bullock & Christopher Frost" INDEX 01 00:00:00FILE "11-Come And Taste My Breakdown.wav" WAVE TRACK 11 AUDIO TITLE "Come And Taste My Breakdown" PERFORMER "Andy Bell" REM COMPOSER "Barney Ashton-Bullock & Christopher Frost" INDEX 01 00:00:00FILE "12-To Know Good Men From Perverts.wav" WAVE TRACK 12 AUDIO TITLE "To Know Good Men From Perverts" PERFORMER "Andy Bell" REM COMPOSER "Barney Ashton-Bullock & Christopher Frost" INDEX 01 00:00:00FILE "13-We Hadn't Slept For Twenty Years.wav" WAVE TRACK 13 AUDIO TITLE "We Hadn't Slept For Twenty Years" PERFORMER "Andy Bell" REM COMPOSER "Barney Ashton-Bullock & Christopher Frost" INDEX 01 00:00:00FILE "14-Silence Is Golden.wav" WAVE TRACK 14 AUDIO TITLE "Silence Is Golden" PERFORMER "Andy Bell" REM COMPOSER "Barney Ashton-Bullock & Christopher Frost" INDEX 01 00:00:00FILE "15-Not Opting Out.wav" WAVE TRACK 15 AUDIO TITLE "Not Opting Out" PERFORMER "Andy Bell" REM COMPOSER "Barney Ashton-Bullock & Christopher Frost" INDEX 01 00:00:00FILE "16-I Don't Like (Bronski Beat Remix Edit).wav" WAVE TRACK 16 AUDIO TITLE "I Don't Like (Bronski Beat Remix Edit)" PERFORMER "Andy Bell" REM COMPOSER "Barney Ashton-Bullock & Christopher Frost" INDEX 01 00:00:00


[geo-torrent.biz]_t_5730711.torrent
Torrent: Registered ·  [ 2019-05-12 18:57 ] ·  62bae83f191ac639475869a2aed29c6f8df07a49

18 KB

Status: checked
Completed: 0 times
Size: 1.28 GB
Rating: 
(Votes: 0)
Say thanks: 0  Thanks
Похожие темы
[Profile]    [PM]
Display posts from previous:    
Reply to topic

The time now is: Today 16:05

All times are GMT + 7 Hours



You cannot post new topics in this forum
You cannot reply to topics in this forum
You cannot edit your posts in this forum
You cannot delete your posts in this forum
You cannot vote in polls in this forum
You cannot attach files in this forum
You can download files in this forum