(Pop) [CD] Nik Kershaw - Then & Now-The Very Best Of - 2005, FLAC (image+.cue), lossless

Reply to topic
DL-List and Torrent activity [Update пиров]
Size:  585 MB   |    Registered:  9 months 15 days   |    Completed:  1 time

Seeder not seen: 3 months 8 days

 
   
 
 
 
Author Message

Кейт

Post 05-May-2019 19:19

[Quote]

Nik Kershaw / Then & Now-The Very Best Of
Жанр: Pop
Носитель: CD
Страна-производитель диска (релиза): UK & Europe
Год издания: 2005
Издатель (лейбл): Universal Music TV
Номер по каталогу: 9829338
Страна исполнителя (группы): UK
Аудиокодек: FLAC (*.flac)
Тип рипа: image+.cue
Продолжительность: 01:19:21
Источник: собственный рип
Наличие сканов в содержимом раздачи: да
Треклист:
01. Wouldn't It Be Good 4:37
02. Dancing Girls 3:18
03. I Won't Let The Sun Go Down On Me 3:12
04. Human Racing 3:49
05. The Riddle 3:54
06. Wide Boy 3:13
07. Don Quixote 4:14
08. When A Heart Beats 3:55
09. Nobody Knows 3:08
10. Radio Musicola 4:00
11. One Step Ahead 3:51
12. Elizabeth's Eyes 4:19
13. Old Friend (Elton John & Nik Kershaw) 4:14
14. Sometimes (Les Rythmes Digitales feat. Nik Kershaw) [New Track] 4:56
15. Somebody Loves You 3:58
16. Wounded 3:39
17. Times Like These [New Track] 4:40
18. Dangerous Eyes [New Track] 4:08
19. Cloud Nine [New Track] 4:42
20. What It Is [New Track] 3:34

Лог создания рипа

Exact Audio Copy V1.3 from 2. September 2016
Отчёт EAC об извлечении, выполненном 24. апреля 2019, 15:27
Nik Kershaw / Then & Now-The Very Best Of
Дисковод: ASUS DRW-24D5MT Adapter: 1 ID: 1
Режим чтения : ДостоверностьИспользование точного потока : ДаОтключение кэша аудио : ДаИспользование указателей C2 : Нет
Коррекция смещения при чтении : 6Способность читать области Lead-in и Lead-out : НетЗаполнение пропущенных сэмплов тишиной : ДаУдаление блоков с тишиной в начале и конце : НетПри вычислениях CRC использовались нулевые сэмплы : ДаИнтерфейс : Встроенный Win32-интерфейс для Win NT/2000
Выходной формат : Пользовательский кодировщикВыбранный битрейт : 896 kBit/sКачество : ВысокийДобавление ID3-тега : НетУтилита сжатия : C:\Program Files (x86)\Exact Audio Copy\flac-1.3.1-win\win64\flac.exeДополнительные параметры : -8 -V -T "ARTIST=%artist%" -T "TITLE=%title%" -T "ALBUM=%albumtitle%" -T "DATE=%year%" -T "TRACKNUMBER=%tracknr%/%numtracks%" -T "GENRE=%genre%" -T "COMMENT=%comment%" %source% -o %dest%
TOC извлечённого CD
Трек | Старт | Длительность | Начальный сектор | Конечный сектор --------------------------------------------------------------------- 1 | 0:00.00 | 4:37.10 | 0 | 20784 2 | 4:37.10 | 3:18.07 | 20785 | 35641 3 | 7:55.17 | 3:12.11 | 35642 | 50052 4 | 11:07.28 | 3:48.69 | 50053 | 67221 5 | 14:56.22 | 3:53.52 | 67222 | 84748 6 | 18:49.74 | 3:12.65 | 84749 | 99213 7 | 22:02.64 | 4:13.46 | 99214 | 118234 8 | 26:16.35 | 3:54.47 | 118235 | 135831 9 | 30:11.07 | 3:08.32 | 135832 | 149963 10 | 33:19.39 | 4:00.10 | 149964 | 167973 11 | 37:19.49 | 3:50.39 | 167974 | 185262 12 | 41:10.13 | 4:19.07 | 185263 | 204694 13 | 45:29.20 | 4:14.37 | 204695 | 223781 14 | 49:43.57 | 4:56.09 | 223782 | 245990 15 | 54:39.66 | 3:57.62 | 245991 | 263827 16 | 58:37.53 | 3:38.62 | 263828 | 280239 17 | 62:16.40 | 4:40.24 | 280240 | 301263 18 | 66:56.64 | 4:07.58 | 301264 | 319846 19 | 71:04.47 | 4:42.28 | 319847 | 341024 20 | 75:47.00 | 3:33.42 | 341025 | 357041
Характеристики диапазона извлечения и сообщения об ошибках
Выбранный диапазон
Имя файла F:\Lossless\_DJ Stakan\Nik Kershaw - Then & Now-The Very Best Of.wav
Пиковый уровень 100.0 % Скорость извлечения 7.4 X Качество диапазона 99.9 % CRC теста 1314E46C CRC копии 1314E46C Копирование... OK
Ошибок не произошло
AccurateRip: сводка
Трек 1 : извлечено точно (доверие 42) [6DE923A1] (AR v2)Трек 2 : извлечено точно (доверие 42) [2B691C7A] (AR v2)Трек 3 : извлечено точно (доверие 42) [0650B9FD] (AR v2)Трек 4 : извлечено точно (доверие 42) [25DFA3E6] (AR v2)Трек 5 : извлечено точно (доверие 42) [FD747FF9] (AR v2)Трек 6 : извлечено точно (доверие 41) [6D821D44] (AR v2)Трек 7 : извлечено точно (доверие 41) [9E6274C9] (AR v2)Трек 8 : извлечено точно (доверие 41) [3EBB95DF] (AR v2)Трек 9 : извлечено точно (доверие 41) [379D4E42] (AR v2)Трек 10 : извлечено точно (доверие 41) [D10F927A] (AR v2)Трек 11 : извлечено точно (доверие 41) [9F368D08] (AR v2)Трек 12 : извлечено точно (доверие 40) [193A2D82] (AR v2)Трек 13 : извлечено точно (доверие 41) [B4789280] (AR v2)Трек 14 : извлечено точно (доверие 40) [675950D4] (AR v2)Трек 15 : извлечено точно (доверие 41) [ABE22B70] (AR v2)Трек 16 : извлечено точно (доверие 41) [81D79C0B] (AR v2)Трек 17 : извлечено точно (доверие 41) [15FB0BBC] (AR v2)Трек 18 : извлечено точно (доверие 41) [245591C7] (AR v2)Трек 19 : извлечено точно (доверие 40) [C2B5DCE5] (AR v2)Трек 20 : извлечено точно (доверие 40) [782CD8CA] (AR v2)
Все треки извлечены точно
Конец отчёта
---- CUETools DB Plugin V2.1.6
[CTDB TOCID: EPaA7oeRqkw3NNpt8r4dnocq8yM-] foundSubmit result: EPaA7oeRqkw3NNpt8r4dnocq8yM- has been confirmedTrack | CTDB Status 1 | (54/54) Accurately ripped 2 | (54/54) Accurately ripped 3 | (54/54) Accurately ripped 4 | (53/54) Accurately ripped 5 | (54/54) Accurately ripped 6 | (53/54) Accurately ripped 7 | (54/54) Accurately ripped 8 | (54/54) Accurately ripped 9 | (54/54) Accurately ripped 10 | (54/54) Accurately ripped 11 | (54/54) Accurately ripped 12 | (54/54) Accurately ripped 13 | (54/54) Accurately ripped 14 | (54/54) Accurately ripped 15 | (54/54) Accurately ripped 16 | (54/54) Accurately ripped 17 | (54/54) Accurately ripped 18 | (54/54) Accurately ripped 19 | (54/54) Accurately ripped 20 | (54/54) Accurately ripped
==== Контрольная сумма отчёта BBAE678F9D250438BCE8AD439523B276F611AFA628CD793FE29A0642AD1A9164 ====

Содержание индексной карты (.CUE)

REM GENRE PopREM DATE 2005REM DISCID 31129814REM COMMENT "ExactAudioCopy v1.3"PERFORMER "Nik Kershaw"TITLE "Then & Now-The Very Best Of"REM COMPOSER ""FILE "Nik Kershaw - Then & Now-The Very Best Of.flac" WAVE TRACK 01 AUDIO TITLE "Wouldn't It Be Good" PERFORMER "Nik Kershaw" REM COMPOSER "" INDEX 01 00:00:00 TRACK 02 AUDIO TITLE "Dancing Girls" PERFORMER "Nik Kershaw" REM COMPOSER "" INDEX 00 04:35:27 INDEX 01 04:37:10 TRACK 03 AUDIO TITLE "I Won't Let The Sun Go Down On Me" PERFORMER "Nik Kershaw" REM COMPOSER "" INDEX 00 07:53:34 INDEX 01 07:55:17 TRACK 04 AUDIO TITLE "Human Racing" PERFORMER "Nik Kershaw" REM COMPOSER "" INDEX 00 11:05:45 INDEX 01 11:07:28 TRACK 05 AUDIO TITLE "The Riddle" PERFORMER "Nik Kershaw" REM COMPOSER "" INDEX 00 14:54:39 INDEX 01 14:56:22 TRACK 06 AUDIO TITLE "Wide Boy" PERFORMER "Nik Kershaw" REM COMPOSER "" INDEX 00 18:48:17 INDEX 01 18:49:74 TRACK 07 AUDIO TITLE "Don Quixote" PERFORMER "Nik Kershaw" REM COMPOSER "" INDEX 00 22:01:06 INDEX 01 22:02:64 TRACK 08 AUDIO TITLE "When A Heart Beats" PERFORMER "Nik Kershaw" REM COMPOSER "" INDEX 00 26:14:52 INDEX 01 26:16:35 TRACK 09 AUDIO TITLE "Nobody Knows" PERFORMER "Nik Kershaw" REM COMPOSER "" INDEX 00 30:09:24 INDEX 01 30:11:07 TRACK 10 AUDIO TITLE "Radio Musicola" PERFORMER "Nik Kershaw" REM COMPOSER "" INDEX 01 33:19:39 TRACK 11 AUDIO TITLE "One Step Ahead" PERFORMER "Nik Kershaw" REM COMPOSER "" INDEX 00 37:17:66 INDEX 01 37:19:49 TRACK 12 AUDIO TITLE "Elizabeth's Eyes" PERFORMER "Nik Kershaw" REM COMPOSER "" INDEX 01 41:10:13 TRACK 13 AUDIO TITLE "Old Friend" PERFORMER "Elton John & Nik Kershaw" REM COMPOSER "" INDEX 01 45:29:20 TRACK 14 AUDIO TITLE "Sometimes" PERFORMER "Les Rythmes Digitales feat. Nik Kershaw" REM COMPOSER "" INDEX 01 49:43:57 TRACK 15 AUDIO TITLE "Somebody Loves You" PERFORMER "Nik Kershaw" REM COMPOSER "" INDEX 01 54:39:66 TRACK 16 AUDIO TITLE "Wounded" PERFORMER "Nik Kershaw" REM COMPOSER "" INDEX 00 58:35:70 INDEX 01 58:37:53 TRACK 17 AUDIO TITLE "Times Like These" PERFORMER "Nik Kershaw" REM COMPOSER "" INDEX 00 62:14:57 INDEX 01 62:16:40 TRACK 18 AUDIO TITLE "Dangerous Eyes" PERFORMER "Nik Kershaw" REM COMPOSER "" INDEX 00 66:55:06 INDEX 01 66:56:64 TRACK 19 AUDIO TITLE "Cloud Nine" PERFORMER "Nik Kershaw" REM COMPOSER "" INDEX 00 71:02:64 INDEX 01 71:04:47 TRACK 20 AUDIO TITLE "What It Is" PERFORMER "Nik Kershaw" REM COMPOSER "" INDEX 01 75:47:00
Nik Kershaw - Then & Now-The Very Best Of - 2005, MP3, 320 kbps


[geo-torrent.biz]_t_5723290.torrent
Torrent: Registered ·  [ 2019-05-05 19:11 ] ·  95e3b530f556cd349fc6f2d479ca792a83630a19

13 KB

Status: checked
Completed: 1 times
Size: 585 MB
Rating: 
(Votes: 0)
Say thanks: 0  Thanks
Похожие темы
[Profile]    [PM]
Display posts from previous:    
Reply to topic

The time now is: Today 19:06

All times are GMT + 7 Hours



You cannot post new topics in this forum
You cannot reply to topics in this forum
You cannot edit your posts in this forum
You cannot delete your posts in this forum
You cannot vote in polls in this forum
You cannot attach files in this forum
You can download files in this forum