(Rhythm & Blues, Soul) [CD] Michael Jackson And The Jackson 5 - 18 Greatest Hits - 1984, FLAC (tracks+.cue), lossless

Reply to topic
DL-List and Torrent activity [Update пиров]
Size:  354 MB   |    Registered:  9 months 15 days   |    Completed:  1 time

Seeder not seen: 3 months 8 days

 
   
 
 
 
Author Message

Кейт

Post 05-May-2019 19:19

[Quote]

Michael Jackson And The Jackson 5 / 18 Greatest Hits
Жанр: Rhythm & Blues, Soul
Носитель: CD
Страна-производитель диска (релиза): EU
Год издания: 1984
Издатель (лейбл): Motown
Номер по каталогу: MCD06070MD
Аудиокодек: FLAC (*.flac)
Тип рипа: tracks+.cue
Продолжительность: 00:59:31
Источник: локальная сеть
Наличие сканов в содержимом раздачи: да
Треклист:
Michael Jackson
1 Got To Be There 3:22
2 Rockin' Robin 2:30
3 I Wanna Be Where You Are 2:58
4 Ben 2:43
5 With A Child's Heart 3:30
6 One Day In Your Life 4:16
The Jackson 5
7 I Want You Back 2:57
8 Who's Lovin' You 4:00
9 ABC 2:57
10 The Love You Save 3:03
11 I'll Be There 3:57
12 Mama's Pearl 3:12
13 Never Can Say Goodbye 2:59
14 Maybe Tomorrow 4:39
15 Sugar Daddy 2:28
16 Lookin' Through The Windows 3:31
17 Get It Together 2:48
18 Dancing Machine 3:17

Лог создания рипа

Exact Audio Copy V1.1 from 23. June 2015
EAC extraction logfile from 14. May 2017, 14:01
Michael Jackson & The Jackson 5 / 18 Greatest Hits
Used drive : HL-DT-STDVD+-RW GSA-H31L Adapter: 1 ID: 0
Read mode : SecureUtilize accurate stream : YesDefeat audio cache : YesMake use of C2 pointers : No
Read offset correction : 102Overread into Lead-In and Lead-Out : NoFill up missing offset samples with silence : YesDelete leading and trailing silent blocks : NoNull samples used in CRC calculations : YesUsed interface : Native Win32 interface for Win NT & 2000Gap handling : Appended to previous track
Used output format : User Defined EncoderSelected bitrate : 768 kBit/sQuality : HighAdd ID3 tag : NoCommand line compressor : C:\Program Files (x86)\Exact Audio Copy\FLAC\FLAC.EXEAdditional command line options : -8 -V -T "ARTIST=%artist%" -T "TITLE=%title%" -T "ALBUM=%albumtitle%" -T "DATE=%year%" -T "TRACKNUMBER=%tracknr%" -T "TOTALTRACKS=%numtracks%" -T "GENRE=%genre%" -T "ALBUMARTIST=%albumartist%" -T "ALBUM ARTIST=%albumartist%" -T "COMMENT=EAC Secure Mode, Test & Copy, AccurateRip, FLAC -8" %source%
TOC of the extracted CD
Track | Start | Length | Start sector | End sector --------------------------------------------------------- 1 | 0:00.00 | 3:24.15 | 0 | 15314 2 | 3:24.15 | 2:33.30 | 15315 | 26819 3 | 5:57.45 | 2:58.73 | 26820 | 40242 4 | 8:56.43 | 2:46.17 | 40243 | 52709 5 | 11:42.60 | 3:32.05 | 52710 | 68614 6 | 15:14.65 | 4:17.03 | 68615 | 87892 7 | 19:31.68 | 2:58.70 | 87893 | 101312 8 | 22:30.63 | 4:01.22 | 101313 | 119409 9 | 26:32.10 | 2:58.73 | 119410 | 132832 10 | 29:31.08 | 3:04.47 | 132833 | 146679 11 | 32:35.55 | 3:58.08 | 146680 | 164537 12 | 36:33.63 | 3:13.40 | 164538 | 179052 13 | 39:47.28 | 2:59.17 | 179053 | 192494 14 | 42:46.45 | 4:39.55 | 192495 | 213474 15 | 47:26.25 | 2:30.15 | 213475 | 224739 16 | 49:56.40 | 3:33.40 | 224740 | 240754 17 | 53:30.05 | 2:50.60 | 240755 | 253564 18 | 56:20.65 | 3:18.43 | 253565 | 268457
Track 1
Filename F:\Torrents\Downloads\Michael Jackson & The Jackson 5 - 18 Greatest Hits (1984) [FLAC] {MCD06070MD}\01 - Got To Be There.wav
Pre-gap length 0:00:02.00
Peak level 85.4 % Extraction speed 1.4 X Track quality 99.9 % Test CRC D6803A5B Copy CRC D6803A5B Accurately ripped (confidence 5) [080C92B2] (AR v2) Copy OK
Track 2
Filename F:\Torrents\Downloads\Michael Jackson & The Jackson 5 - 18 Greatest Hits (1984) [FLAC] {MCD06070MD}\02 - Rockin' Robin.wav
Pre-gap length 0:00:01.00
Peak level 91.8 % Extraction speed 1.7 X Track quality 100.0 % Test CRC 56A762DD Copy CRC 56A762DD Accurately ripped (confidence 5) [3EC0E265] (AR v2) Copy OK
Track 3
Filename F:\Torrents\Downloads\Michael Jackson & The Jackson 5 - 18 Greatest Hits (1984) [FLAC] {MCD06070MD}\03 - I Wanna Be Where You Are.wav
Pre-gap length 0:00:01.07
Peak level 100.0 % Extraction speed 1.6 X Track quality 99.9 % Test CRC E1D79F5B Copy CRC E1D79F5B Accurately ripped (confidence 5) [561DAEE4] (AR v2) Copy OK
Track 4
Filename F:\Torrents\Downloads\Michael Jackson & The Jackson 5 - 18 Greatest Hits (1984) [FLAC] {MCD06070MD}\04 - Ben.wav
Pre-gap length 0:00:00.32
Peak level 66.6 % Extraction speed 2.0 X Track quality 100.0 % Test CRC 53913668 Copy CRC 53913668 Accurately ripped (confidence 5) [4874521E] (AR v2) Copy OK
Track 5
Filename F:\Torrents\Downloads\Michael Jackson & The Jackson 5 - 18 Greatest Hits (1984) [FLAC] {MCD06070MD}\05 - With A Child's Heart.wav
Pre-gap length 0:00:01.26
Peak level 59.2 % Extraction speed 2.2 X Track quality 100.0 % Test CRC 271E6BDA Copy CRC 271E6BDA Accurately ripped (confidence 5) [A36708FB] (AR v2) Copy OK
Track 6
Filename F:\Torrents\Downloads\Michael Jackson & The Jackson 5 - 18 Greatest Hits (1984) [FLAC] {MCD06070MD}\06 - One Day In Your Life.wav
Pre-gap length 0:00:00.01
Peak level 100.0 % Extraction speed 2.3 X Track quality 100.0 % Test CRC B03D20C3 Copy CRC B03D20C3 Accurately ripped (confidence 5) [FAE3D989] (AR v2) Copy OK
Track 7
Filename F:\Torrents\Downloads\Michael Jackson & The Jackson 5 - 18 Greatest Hits (1984) [FLAC] {MCD06070MD}\07 - I Want You Back.wav
Peak level 79.8 % Extraction speed 2.0 X Track quality 99.9 % Test CRC D0C2EB9A Copy CRC D0C2EB9A Accurately ripped (confidence 5) [A20DE7AA] (AR v2) Copy OK
Track 8
Filename F:\Torrents\Downloads\Michael Jackson & The Jackson 5 - 18 Greatest Hits (1984) [FLAC] {MCD06070MD}\08 - Who's Lovin' You.wav
Peak level 82.6 % Extraction speed 2.5 X Track quality 100.0 % Test CRC 65056E41 Copy CRC 65056E41 Accurately ripped (confidence 5) [0DE2C58F] (AR v2) Copy OK
Track 9
Filename F:\Torrents\Downloads\Michael Jackson & The Jackson 5 - 18 Greatest Hits (1984) [FLAC] {MCD06070MD}\09 - ABC.wav
Pre-gap length 0:00:00.14
Peak level 76.3 % Extraction speed 2.1 X Track quality 99.9 % Test CRC D7D9C014 Copy CRC D7D9C014 Accurately ripped (confidence 5) [A916993E] (AR v2) Copy OK
Track 10
Filename F:\Torrents\Downloads\Michael Jackson & The Jackson 5 - 18 Greatest Hits (1984) [FLAC] {MCD06070MD}\10 - The Love You Save.wav
Pre-gap length 0:00:00.24
Peak level 57.6 % Extraction speed 2.6 X Track quality 100.0 % Test CRC 307C411D Copy CRC 307C411D Accurately ripped (confidence 5) [7AA627B7] (AR v2) Copy OK
Track 11
Filename F:\Torrents\Downloads\Michael Jackson & The Jackson 5 - 18 Greatest Hits (1984) [FLAC] {MCD06070MD}\11 - I'll Be There.wav
Pre-gap length 0:00:00.52
Peak level 56.6 % Extraction speed 2.8 X Track quality 100.0 % Test CRC A562C9EF Copy CRC A562C9EF Accurately ripped (confidence 5) [32124E5E] (AR v2) Copy OK
Track 12
Filename F:\Torrents\Downloads\Michael Jackson & The Jackson 5 - 18 Greatest Hits (1984) [FLAC] {MCD06070MD}\12 - Mama's Pearl.wav
Pre-gap length 0:00:00.37
Peak level 69.9 % Extraction speed 2.4 X Track quality 99.9 % Test CRC 6DDDD3E8 Copy CRC 6DDDD3E8 Accurately ripped (confidence 5) [94E30FB5] (AR v2) Copy OK
Track 13
Filename F:\Torrents\Downloads\Michael Jackson & The Jackson 5 - 18 Greatest Hits (1984) [FLAC] {MCD06070MD}\13 - Never Can Say Goodbye.wav
Pre-gap length 0:00:00.45
Peak level 87.0 % Extraction speed 2.9 X Track quality 100.0 % Test CRC 16383752 Copy CRC 16383752 Accurately ripped (confidence 5) [B05AD363] (AR v2) Copy OK
Track 14
Filename F:\Torrents\Downloads\Michael Jackson & The Jackson 5 - 18 Greatest Hits (1984) [FLAC] {MCD06070MD}\14 - Maybe Tomorrow.wav
Peak level 67.3 % Extraction speed 3.2 X Track quality 100.0 % Test CRC FE65AE59 Copy CRC FE65AE59 Accurately ripped (confidence 5) [EE3E14C7] (AR v2) Copy OK
Track 15
Filename F:\Torrents\Downloads\Michael Jackson & The Jackson 5 - 18 Greatest Hits (1984) [FLAC] {MCD06070MD}\15 - Sugar Daddy.wav
Peak level 71.8 % Extraction speed 2.9 X Track quality 100.0 % Test CRC F2793477 Copy CRC F2793477 Accurately ripped (confidence 5) [4DDD695F] (AR v2) Copy OK
Track 16
Filename F:\Torrents\Downloads\Michael Jackson & The Jackson 5 - 18 Greatest Hits (1984) [FLAC] {MCD06070MD}\16 - Lookin' Through The Windows.wav
Peak level 100.0 % Extraction speed 3.2 X Track quality 100.0 % Test CRC 6AD2A425 Copy CRC 6AD2A425 Accurately ripped (confidence 5) [CF274734] (AR v2) Copy OK
Track 17
Filename F:\Torrents\Downloads\Michael Jackson & The Jackson 5 - 18 Greatest Hits (1984) [FLAC] {MCD06070MD}\17 - Get It Together.wav
Pre-gap length 0:00:00.50
Peak level 100.0 % Extraction speed 3.1 X Track quality 100.0 % Test CRC A7B07AF5 Copy CRC A7B07AF5 Accurately ripped (confidence 5) [29BA0839] (AR v2) Copy OK
Track 18
Filename F:\Torrents\Downloads\Michael Jackson & The Jackson 5 - 18 Greatest Hits (1984) [FLAC] {MCD06070MD}\18 - Dancing Machine.wav
Pre-gap length 0:00:01.32
Peak level 100.0 % Extraction speed 2.8 X Track quality 99.9 % Test CRC 9D9D353B Copy CRC 9D9D353B Accurately ripped (confidence 5) [700F8C9D] (AR v2) Copy OK
All tracks accurately ripped
No errors occurred
End of status report
---- CUETools DB Plugin V2.1.6
[CTDB TOCID: e8zlIRXK39Q8.ps8LVjHMvEZyJM-] foundSubmit result: e8zlIRXK39Q8.ps8LVjHMvEZyJM- has been confirmedTrack | CTDB Status 1 | (25/25) Accurately ripped 2 | (24/25) Accurately ripped 3 | (25/25) Accurately ripped 4 | (25/25) Accurately ripped 5 | (25/25) Accurately ripped 6 | (25/25) Accurately ripped 7 | (25/25) Accurately ripped 8 | (25/25) Accurately ripped 9 | (25/25) Accurately ripped 10 | (25/25) Accurately ripped 11 | (25/25) Accurately ripped 12 | (25/25) Accurately ripped 13 | (25/25) Accurately ripped 14 | (25/25) Accurately ripped 15 | (25/25) Accurately ripped 16 | (25/25) Accurately ripped 17 | (25/25) Accurately ripped 18 | (25/25) Accurately ripped
==== Log checksum 7F271B4A3B3A9077C8D084B7E5E94D00FF29711C7D93FDAEDFD32406FEF05139 ====

Содержание индексной карты (.CUE)

REM GENRE R&BREM DATE 1983REM DISCID 1F0DFB12REM COMMENT "ExactAudioCopy v1.1"PERFORMER "Michael Jackson & The Jackson 5"TITLE "18 Greatest Hits"FILE "01 - Got To Be There.wav" WAVE TRACK 01 AUDIO TITLE "Got To Be There" PERFORMER "Michael Jackson & The Jackson 5" INDEX 01 00:00:00 TRACK 02 AUDIO TITLE "Rockin' Robin" PERFORMER "Michael Jackson & The Jackson 5" INDEX 00 03:23:15FILE "02 - Rockin' Robin.wav" WAVE INDEX 01 00:00:00 TRACK 03 AUDIO TITLE "I Wanna Be Where You Are" PERFORMER "Michael Jackson & The Jackson 5" INDEX 00 02:32:23FILE "03 - I Wanna Be Where You Are.wav" WAVE INDEX 01 00:00:00 TRACK 04 AUDIO TITLE "Ben" PERFORMER "Michael Jackson & The Jackson 5" INDEX 00 02:58:41FILE "04 - Ben.wav" WAVE INDEX 01 00:00:00 TRACK 05 AUDIO TITLE "With A Child's Heart" PERFORMER "Michael Jackson & The Jackson 5" INDEX 00 02:44:66FILE "05 - With A Child's Heart.wav" WAVE INDEX 01 00:00:00 TRACK 06 AUDIO TITLE "One Day In Your Life" PERFORMER "Michael Jackson & The Jackson 5" INDEX 00 03:32:04FILE "06 - One Day In Your Life.wav" WAVE INDEX 01 00:00:00FILE "07 - I Want You Back.wav" WAVE TRACK 07 AUDIO TITLE "I Want You Back" PERFORMER "Michael Jackson & The Jackson 5" INDEX 01 00:00:00FILE "08 - Who's Lovin' You.wav" WAVE TRACK 08 AUDIO TITLE "Who's Lovin' You" PERFORMER "Michael Jackson & The Jackson 5" INDEX 01 00:00:00 TRACK 09 AUDIO TITLE "ABC" PERFORMER "Michael Jackson & The Jackson 5" INDEX 00 04:01:08FILE "09 - ABC.wav" WAVE INDEX 01 00:00:00 TRACK 10 AUDIO TITLE "The Love You Save" PERFORMER "Michael Jackson & The Jackson 5" INDEX 00 02:58:49FILE "10 - The Love You Save.wav" WAVE INDEX 01 00:00:00 TRACK 11 AUDIO TITLE "I'll Be There" PERFORMER "Michael Jackson & The Jackson 5" INDEX 00 03:03:70FILE "11 - I'll Be There.wav" WAVE INDEX 01 00:00:00 TRACK 12 AUDIO TITLE "Mama's Pearl" PERFORMER "Michael Jackson & The Jackson 5" INDEX 00 03:57:46FILE "12 - Mama's Pearl.wav" WAVE INDEX 01 00:00:00 TRACK 13 AUDIO TITLE "Never Can Say Goodbye" PERFORMER "Michael Jackson & The Jackson 5" INDEX 00 03:12:70FILE "13 - Never Can Say Goodbye.wav" WAVE INDEX 01 00:00:00FILE "14 - Maybe Tomorrow.wav" WAVE TRACK 14 AUDIO TITLE "Maybe Tomorrow" PERFORMER "Michael Jackson & The Jackson 5" INDEX 01 00:00:00FILE "15 - Sugar Daddy.wav" WAVE TRACK 15 AUDIO TITLE "Sugar Daddy" PERFORMER "Michael Jackson & The Jackson 5" INDEX 01 00:00:00FILE "16 - Lookin' Through The Windows.wav" WAVE TRACK 16 AUDIO TITLE "Lookin' Through The Windows" PERFORMER "Michael Jackson & The Jackson 5" INDEX 01 00:00:00 TRACK 17 AUDIO TITLE "Get It Together" PERFORMER "Michael Jackson & The Jackson 5" INDEX 00 03:32:65FILE "17 - Get It Together.wav" WAVE INDEX 01 00:00:00 TRACK 18 AUDIO TITLE "Dancing Machine" PERFORMER "Michael Jackson & The Jackson 5" INDEX 00 02:49:28FILE "18 - Dancing Machine.wav" WAVE INDEX 01 00:00:00


[geo-torrent.biz]_t_5725724.torrent
Torrent: Registered ·  [ 2019-05-05 19:11 ] ·  965a246ebd02de7f42d4d240f53bae8659910f6c

16 KB

Status: checked
Completed: 1 times
Size: 354 MB
Rating: 
(Votes: 0)
Say thanks: 0  Thanks
Похожие темы
[Profile]    [PM]
Display posts from previous:    
Reply to topic

The time now is: Today 19:02

All times are GMT + 7 Hours



You cannot post new topics in this forum
You cannot reply to topics in this forum
You cannot edit your posts in this forum
You cannot delete your posts in this forum
You cannot vote in polls in this forum
You cannot attach files in this forum
You can download files in this forum