(Score) [CD] Яма / La Buca (by Pino Donaggio & Zeno Gabaglio) - 2014, FLAC (tracks+.cue), lossless

Reply to topic
DL-List and Torrent activity [Update пиров]
Size:  279 MB   |    Registered:  9 months 15 days   |    Completed:  0 times

Seeder not seen: Never

 
   
 
 
 
Author Message

SVP

Post 05-May-2019 19:12

[Quote]

Яма| La Buca Жанр: Score
Носитель: CD
Композитор: Pino Donaggio
Год выхода диска: 2014
Страна-производитель фильма: Italy, Switzerland
Страна-производитель диска: Spain
Издатель (лейбл): Quartet Records
Номер по каталогу: QR167
Аудиокодек: FLAC (*.flac)
Тип рипа: tracks+.cue
Битрейт аудио: lossless
Продолжительность: 00:40:14
Источник: собственный рип
Наличие сканов в содержимом раздачи: да, 600 dpi, jpg

Треклист

1. L’inizio della Storia (03:35)2. La Buca (02:34)3. Tentativo di Truffa (02:02)4. Il Torpedone (00:53)5. Arianna (01:29)6. L’invalido (00:57)7. Periferia (00:50)8. Pensieri di Notte (02:25)9. Sguardo Dolce (02:19)10. Nancho (01:40)11. Il Bidone (01:03)12. La Casa di Riposo (01:36)13. Tribunale (02:09)14. La Colazione e’ Servita (00:55)15. Hot Club (03:13)16. Il Solito Bar (01:52)17. Tutti in Svizzera (01:33)18. Dibattimento in Aula (02:48)19. L’arringa (02:38)20. Hole Prelude (01:47) - composed & realized Zeno Gabaglio21. L’ambulanza (01:56)

Лог создания рипа

Exact Audio Copy V1.3 from 2. September 2016
EAC extraction logfile from 20. April 2019, 14:49
Pino Donaggio / La Buca
Used drive : PLEXTOR DVDR PX-L890SA Adapter: 1 ID: 0
Read mode : SecureUtilize accurate stream : YesDefeat audio cache : YesMake use of C2 pointers : No
Read offset correction : 6Overread into Lead-In and Lead-Out : NoFill up missing offset samples with silence : YesDelete leading and trailing silent blocks : NoNull samples used in CRC calculations : YesUsed interface : Native Win32 interface for Win NT & 2000Gap handling : Appended to previous track
Used output format : User Defined EncoderSelected bitrate : 1024 kBit/sQuality : HighAdd ID3 tag : NoCommand line compressor : C:\Program Files\Exact Audio Copy\Flac\flac.exeAdditional command line options : -V -8 -T "Genre=%genre%" -T "Artist=%artist%" -T "Title=%title%" -T "Album=%albumtitle%" -T "Totaldiscs=%totalcds%" -T "Discnumber=%cdnumber%" -T "Date=%year%" -T "Tracknumber=%tracknr%" -T "Comment=%comment%" %source%
TOC of the extracted CD
Track | Start | Length | Start sector | End sector --------------------------------------------------------- 1 | 0:00.00 | 3:37.52 | 0 | 16326 2 | 3:37.52 | 2:36.01 | 16327 | 28027 3 | 6:13.53 | 2:04.09 | 28028 | 37336 4 | 8:17.62 | 0:55.73 | 37337 | 41534 5 | 9:13.60 | 1:31.22 | 41535 | 48381 6 | 10:45.07 | 0:59.59 | 48382 | 52865 7 | 11:44.66 | 0:51.22 | 52866 | 56712 8 | 12:36.13 | 2:27.22 | 56713 | 67759 9 | 15:03.35 | 2:21.16 | 67760 | 78350 10 | 17:24.51 | 1:41.25 | 78351 | 85950 11 | 19:06.01 | 1:05.42 | 85951 | 90867 12 | 20:11.43 | 1:38.31 | 90868 | 98248 13 | 21:49.74 | 2:10.44 | 98249 | 108042 14 | 24:00.43 | 0:56.64 | 108043 | 112306 15 | 24:57.32 | 3:14.20 | 112307 | 126876 16 | 28:11.52 | 1:51.05 | 126877 | 135206 17 | 30:02.57 | 1:34.30 | 135207 | 142286 18 | 31:37.12 | 2:50.71 | 142287 | 155107 19 | 34:28.08 | 2:40.67 | 155108 | 167174 20 | 37:09.00 | 1:49.13 | 167175 | 175362 21 | 38:58.13 | 1:56.69 | 175363 | 184131
Track 1
Filename F:\torrent\Pino Donaggio - La Buca - 2014 [CD] {QR167}\01. Pino Donaggio - L'inizio della Storia.wav
Pre-gap length 0:00:02.00
Peak level 100.0 % Extraction speed 5.1 X Track quality 100.0 % Test CRC 6F4C80FF Copy CRC 6F4C80FF Accurately ripped (confidence 1) [F78F83E6] (AR v2) Copy OK
Track 2
Filename F:\torrent\Pino Donaggio - La Buca - 2014 [CD] {QR167}\02. Pino Donaggio - La Buca.wav
Pre-gap length 0:00:02.74
Peak level 99.8 % Extraction speed 4.4 X Track quality 99.9 % Test CRC F21C3070 Copy CRC F21C3070 Accurately ripped (confidence 1) [ED495356] (AR v2) Copy OK
Track 3
Filename F:\torrent\Pino Donaggio - La Buca - 2014 [CD] {QR167}\03. Pino Donaggio - Tentativo di Truffa.wav
Pre-gap length 0:00:02.74
Peak level 100.0 % Extraction speed 5.3 X Track quality 100.0 % Test CRC B5599644 Copy CRC B5599644 Accurately ripped (confidence 1) [10303763] (AR v2) Copy OK
Track 4
Filename F:\torrent\Pino Donaggio - La Buca - 2014 [CD] {QR167}\04. Pino Donaggio - Il Torpedone.wav
Pre-gap length 0:00:02.74
Peak level 100.0 % Extraction speed 4.2 X Track quality 100.0 % Test CRC 426E2B14 Copy CRC 426E2B14 Accurately ripped (confidence 1) [79AC5522] (AR v2) Copy OK
Track 5
Filename F:\torrent\Pino Donaggio - La Buca - 2014 [CD] {QR167}\05. Pino Donaggio - Arianna.wav
Pre-gap length 0:00:02.74
Peak level 99.0 % Extraction speed 4.0 X Track quality 99.8 % Test CRC 439BA539 Copy CRC 439BA539 Accurately ripped (confidence 1) [26E8799E] (AR v2) Copy OK
Track 6
Filename F:\torrent\Pino Donaggio - La Buca - 2014 [CD] {QR167}\06. Pino Donaggio - L'Invalido.wav
Pre-gap length 0:00:02.74
Peak level 100.0 % Extraction speed 4.6 X Track quality 100.0 % Test CRC C0D43045 Copy CRC C0D43045 Accurately ripped (confidence 1) [D4ACB6B1] (AR v2) Copy OK
Track 7
Filename F:\torrent\Pino Donaggio - La Buca - 2014 [CD] {QR167}\07. Pino Donaggio - Periferia.wav
Pre-gap length 0:00:02.74
Peak level 99.0 % Extraction speed 4.4 X Track quality 100.0 % Test CRC E929697C Copy CRC E929697C Accurately ripped (confidence 1) [E7552A86] (AR v2) Copy OK
Track 8
Filename F:\torrent\Pino Donaggio - La Buca - 2014 [CD] {QR167}\08. Pino Donaggio - Pensieri di Notte.wav
Pre-gap length 0:00:02.74
Peak level 99.3 % Extraction speed 6.2 X Track quality 100.0 % Test CRC 053FF371 Copy CRC 053FF371 Accurately ripped (confidence 1) [20D3C031] (AR v2) Copy OK
Track 9
Filename F:\torrent\Pino Donaggio - La Buca - 2014 [CD] {QR167}\09. Pino Donaggio - Sguardo Dolce.wav
Pre-gap length 0:00:02.74
Peak level 99.8 % Extraction speed 6.4 X Track quality 100.0 % Test CRC DCA8A3AF Copy CRC DCA8A3AF Accurately ripped (confidence 1) [3A63108E] (AR v2) Copy OK
Track 10
Filename F:\torrent\Pino Donaggio - La Buca - 2014 [CD] {QR167}\10. Pino Donaggio - Nancho.wav
Pre-gap length 0:00:02.74
Peak level 100.0 % Extraction speed 6.0 X Track quality 100.0 % Test CRC 02DF7478 Copy CRC 02DF7478 Accurately ripped (confidence 1) [E6EC2508] (AR v2) Copy OK
Track 11
Filename F:\torrent\Pino Donaggio - La Buca - 2014 [CD] {QR167}\11. Pino Donaggio - Il Bidone.wav
Pre-gap length 0:00:02.74
Peak level 99.4 % Extraction speed 5.3 X Track quality 100.0 % Test CRC 971FCE92 Copy CRC 971FCE92 Accurately ripped (confidence 1) [F39ED18F] (AR v2) Copy OK
Track 12
Filename F:\torrent\Pino Donaggio - La Buca - 2014 [CD] {QR167}\12. Pino Donaggio - La Casa di Riposo.wav
Pre-gap length 0:00:02.74
Peak level 100.0 % Extraction speed 6.3 X Track quality 100.0 % Test CRC 4D9E6125 Copy CRC 4D9E6125 Accurately ripped (confidence 1) [6D540FCE] (AR v2) Copy OK
Track 13
Filename F:\torrent\Pino Donaggio - La Buca - 2014 [CD] {QR167}\13. Pino Donaggio - Tribunale.wav
Pre-gap length 0:00:02.74
Peak level 100.0 % Extraction speed 6.9 X Track quality 100.0 % Test CRC FAAEBBEC Copy CRC FAAEBBEC Accurately ripped (confidence 1) [0C566AD3] (AR v2) Copy OK
Track 14
Filename F:\torrent\Pino Donaggio - La Buca - 2014 [CD] {QR167}\14. Pino Donaggio - La Colazione e' Servita.wav
Pre-gap length 0:00:02.74
Peak level 100.0 % Extraction speed 5.4 X Track quality 100.0 % Test CRC 0CCABC0B Copy CRC 0CCABC0B Accurately ripped (confidence 1) [12F6C846] (AR v2) Copy OK
Track 15
Filename F:\torrent\Pino Donaggio - La Buca - 2014 [CD] {QR167}\15. Pino Donaggio - Hot Club.wav
Pre-gap length 0:00:02.74
Peak level 99.6 % Extraction speed 7.7 X Track quality 100.0 % Test CRC 52697FDF Copy CRC 52697FDF Accurately ripped (confidence 1) [A03532CD] (AR v2) Copy OK
Track 16
Filename F:\torrent\Pino Donaggio - La Buca - 2014 [CD] {QR167}\16. Pino Donaggio - Il Solito Bar.wav
Pre-gap length 0:00:02.74
Peak level 100.0 % Extraction speed 7.1 X Track quality 100.0 % Test CRC 857D79F6 Copy CRC 857D79F6 Accurately ripped (confidence 1) [7F8D56AE] (AR v2) Copy OK
Track 17
Filename F:\torrent\Pino Donaggio - La Buca - 2014 [CD] {QR167}\17. Pino Donaggio - Tutti in Svizzera.wav
Pre-gap length 0:00:02.74
Peak level 100.0 % Extraction speed 6.7 X Track quality 100.0 % Test CRC 57EED028 Copy CRC 57EED028 Accurately ripped (confidence 1) [D048F872] (AR v2) Copy OK
Track 18
Filename F:\torrent\Pino Donaggio - La Buca - 2014 [CD] {QR167}\18. Pino Donaggio - Dibattimento in Aula.wav
Pre-gap length 0:00:02.74
Peak level 99.9 % Extraction speed 6.9 X Track quality 99.9 % Test CRC F62EBC07 Copy CRC F62EBC07 Accurately ripped (confidence 1) [DF64C9C5] (AR v2) Copy OK
Track 19
Filename F:\torrent\Pino Donaggio - La Buca - 2014 [CD] {QR167}\19. Pino Donaggio - L'Arringa.wav
Pre-gap length 0:00:02.74
Peak level 100.0 % Extraction speed 8.1 X Track quality 100.0 % Test CRC B72DCDF1 Copy CRC B72DCDF1 Accurately ripped (confidence 1) [D85F6D0B] (AR v2) Copy OK
Track 20
Filename F:\torrent\Pino Donaggio - La Buca - 2014 [CD] {QR167}\20. Zeno Gabaglio - Hole prelude.wav
Pre-gap length 0:00:02.74
Peak level 99.3 % Extraction speed 7.6 X Track quality 100.0 % Test CRC ECEBF0EF Copy CRC ECEBF0EF Accurately ripped (confidence 1) [7095B423] (AR v2) Copy OK
Track 21
Filename F:\torrent\Pino Donaggio - La Buca - 2014 [CD] {QR167}\21. Pino Donaggio - L'Ambulanza.wav
Pre-gap length 0:00:02.74
Peak level 100.0 % Extraction speed 7.9 X Track quality 100.0 % Test CRC C39E882E Copy CRC C39E882E Accurately ripped (confidence 1) [7D23E469] (AR v2) Copy OK
All tracks accurately ripped
No errors occurred
End of status report
---- CUETools DB Plugin V2.1.6
[CTDB TOCID: 4tvth2OvHdjeXbb2AG1xHliM8Cc-] foundSubmit result: 4tvth2OvHdjeXbb2AG1xHliM8Cc- has been confirmedTrack | CTDB Status 1 | (6/6) Accurately ripped 2 | (6/6) Accurately ripped 3 | (6/6) Accurately ripped 4 | (6/6) Accurately ripped 5 | (6/6) Accurately ripped 6 | (6/6) Accurately ripped 7 | (6/6) Accurately ripped 8 | (6/6) Accurately ripped 9 | (6/6) Accurately ripped 10 | (6/6) Accurately ripped 11 | (6/6) Accurately ripped 12 | (6/6) Accurately ripped 13 | (6/6) Accurately ripped 14 | (6/6) Accurately ripped 15 | (6/6) Accurately ripped 16 | (6/6) Accurately ripped 17 | (6/6) Accurately ripped 18 | (6/6) Accurately ripped 19 | (6/6) Accurately ripped 20 | (6/6) Accurately ripped 21 | (6/6) Accurately ripped
==== Log checksum 0F61970BD3275B1812F6F3DE6BBD6B9EC528FC8DC533B3965A855CF582774E57 ====

Содержание индексной карты (.CUE)

REM GENRE SoundtrackREM DATE 2014REM DISCID 20099715REM COMMENT "ExactAudioCopy v1.3"PERFORMER "Pino Donaggio"TITLE "La Buca"REM COMPOSER ""FILE "01. Pino Donaggio - L'inizio della Storia.wav" WAVE TRACK 01 AUDIO TITLE "L'inizio della Storia" PERFORMER "Pino Donaggio" REM COMPOSER "" INDEX 01 00:00:00 TRACK 02 AUDIO TITLE "La Buca" PERFORMER "Pino Donaggio" REM COMPOSER "" INDEX 00 03:34:53FILE "02. Pino Donaggio - La Buca.wav" WAVE INDEX 01 00:00:00 TRACK 03 AUDIO TITLE "Tentativo di Truffa" PERFORMER "Pino Donaggio" REM COMPOSER "" INDEX 00 02:33:02FILE "03. Pino Donaggio - Tentativo di Truffa.wav" WAVE INDEX 01 00:00:00 TRACK 04 AUDIO TITLE "Il Torpedone" PERFORMER "Pino Donaggio" REM COMPOSER "" INDEX 00 02:01:10FILE "04. Pino Donaggio - Il Torpedone.wav" WAVE INDEX 01 00:00:00 TRACK 05 AUDIO TITLE "Arianna" PERFORMER "Pino Donaggio" REM COMPOSER "" INDEX 00 00:52:74FILE "05. Pino Donaggio - Arianna.wav" WAVE INDEX 01 00:00:00 TRACK 06 AUDIO TITLE "L'Invalido" PERFORMER "Pino Donaggio" REM COMPOSER "" INDEX 00 01:28:23FILE "06. Pino Donaggio - L'Invalido.wav" WAVE INDEX 01 00:00:00 TRACK 07 AUDIO TITLE "Periferia" PERFORMER "Pino Donaggio" REM COMPOSER "" INDEX 00 00:56:60FILE "07. Pino Donaggio - Periferia.wav" WAVE INDEX 01 00:00:00 TRACK 08 AUDIO TITLE "Pensieri di Notte" PERFORMER "Pino Donaggio" REM COMPOSER "" INDEX 00 00:48:23FILE "08. Pino Donaggio - Pensieri di Notte.wav" WAVE INDEX 01 00:00:00 TRACK 09 AUDIO TITLE "Sguardo Dolce" PERFORMER "Pino Donaggio" REM COMPOSER "" INDEX 00 02:24:23FILE "09. Pino Donaggio - Sguardo Dolce.wav" WAVE INDEX 01 00:00:00 TRACK 10 AUDIO TITLE "Nancho" PERFORMER "Pino Donaggio" REM COMPOSER "" INDEX 00 02:18:17FILE "10. Pino Donaggio - Nancho.wav" WAVE INDEX 01 00:00:00 TRACK 11 AUDIO TITLE "Il Bidone" PERFORMER "Pino Donaggio" REM COMPOSER "" INDEX 00 01:38:26FILE "11. Pino Donaggio - Il Bidone.wav" WAVE INDEX 01 00:00:00 TRACK 12 AUDIO TITLE "La Casa di Riposo" PERFORMER "Pino Donaggio" REM COMPOSER "" INDEX 00 01:02:43FILE "12. Pino Donaggio - La Casa di Riposo.wav" WAVE INDEX 01 00:00:00 TRACK 13 AUDIO TITLE "Tribunale" PERFORMER "Pino Donaggio" REM COMPOSER "" INDEX 00 01:35:32FILE "13. Pino Donaggio - Tribunale.wav" WAVE INDEX 01 00:00:00 TRACK 14 AUDIO TITLE "La Colazione e' Servita" PERFORMER "Pino Donaggio" REM COMPOSER "" INDEX 00 02:07:45FILE "14. Pino Donaggio - La Colazione e' Servita.wav" WAVE INDEX 01 00:00:00 TRACK 15 AUDIO TITLE "Hot Club" PERFORMER "Pino Donaggio" REM COMPOSER "" INDEX 00 00:53:65FILE "15. Pino Donaggio - Hot Club.wav" WAVE INDEX 01 00:00:00 TRACK 16 AUDIO TITLE "Il Solito Bar" PERFORMER "Pino Donaggio" REM COMPOSER "" INDEX 00 03:11:21FILE "16. Pino Donaggio - Il Solito Bar.wav" WAVE INDEX 01 00:00:00 TRACK 17 AUDIO TITLE "Tutti in Svizzera" PERFORMER "Pino Donaggio" REM COMPOSER "" INDEX 00 01:48:06FILE "17. Pino Donaggio - Tutti in Svizzera.wav" WAVE INDEX 01 00:00:00 TRACK 18 AUDIO TITLE "Dibattimento in Aula" PERFORMER "Pino Donaggio" REM COMPOSER "" INDEX 00 01:31:31FILE "18. Pino Donaggio - Dibattimento in Aula.wav" WAVE INDEX 01 00:00:00 TRACK 19 AUDIO TITLE "L'Arringa" PERFORMER "Pino Donaggio" REM COMPOSER "" INDEX 00 02:47:72FILE "19. Pino Donaggio - L'Arringa.wav" WAVE INDEX 01 00:00:00 TRACK 20 AUDIO TITLE "Hole prelude" PERFORMER "Zeno Gabaglio" REM COMPOSER "" INDEX 00 02:37:68FILE "20. Zeno Gabaglio - Hole prelude.wav" WAVE INDEX 01 00:00:00 TRACK 21 AUDIO TITLE "L'Ambulanza" PERFORMER "Pino Donaggio" REM COMPOSER "" INDEX 00 01:46:14FILE "21. Pino Donaggio - L'Ambulanza.wav" WAVE INDEX 01 00:00:00


[geo-torrent.biz]_t_5721654.torrent
Torrent: Registered ·  [ 2019-05-05 19:11 ] ·  1b99b3371ac25e0897d7e185fd44a0216f35fd71

13 KB

Status: checked
Completed: 0 times
Size: 279 MB
Rating: 
(Votes: 0)
Say thanks: 0  Thanks
Похожие темы
[Profile]    [PM]
Display posts from previous:    
Reply to topic

The time now is: Today 18:29

All times are GMT + 7 Hours



You cannot post new topics in this forum
You cannot reply to topics in this forum
You cannot edit your posts in this forum
You cannot delete your posts in this forum
You cannot vote in polls in this forum
You cannot attach files in this forum
You can download files in this forum