(New Age, Ambient) [CD] Toshifumi Hinata - Another Graffiti - 1988 (Japan Edition), FLAC (tracks+.cue), lossless

Reply to topic
DL-List and Torrent activity [Update пиров]
Size:  236 MB   |    Registered:  8 months 15 days   |    Completed:  0 times

Seeder not seen: Never

 
   
 
 
 
Author Message

Mak

Post 04-May-2019 22:12

[Quote]

Toshifumi Hinata - Another Graffiti
Жанр: New Age, Ambient
Носитель: CD
Страна-производитель диска (релиза): Япония
Год издания: 1988
Издатель (лейбл): Alfa Records
Номер по каталогу: 32XA-213
Аудиокодек: FLAC (*.flac)
Тип рипа: tracks+.cue
Продолжительность: 00:48:29
Источник: xdanguyx
Наличие сканов в содержимом раздачи: да
Треклист:
01. Ikoku no Onnatachi (Remix Version) (5:56)
02. Sarah's Crime (4:51)
03. Midsummer Night/Sayoka (7:27)
04. Colored Air (2:56)
05. Milan and Osiris (2:45)
06. Les Enfants (3:18)
07. Passage (4:42)
08. Mirage (3:07)
09. Sarah: I. Adagio/II. Rondeau/III. Menuet (3:38)
10. A Moment (2:05)
11. Pentimento (2:47)
12. Menuet (1:45)
13. Chat d'Ete/Reflections (3:12)
Сборник.

Лог создания рипа

Exact Audio Copy V1.3 from 2. September 2016
EAC extraction logfile from 19. November 2018, 19:55
Toshifumi Hinata (日向敏文) / Another Graffiti
Used drive : HL-DT-STDVDRAM GTA0N Adapter: 1 ID: 0
Read mode : SecureUtilize accurate stream : YesDefeat audio cache : YesMake use of C2 pointers : No
Read offset correction : 102Overread into Lead-In and Lead-Out : NoFill up missing offset samples with silence : YesDelete leading and trailing silent blocks : NoNull samples used in CRC calculations : YesUsed interface : Native Win32 interface for Win NT & 2000Gap handling : Appended to previous track
Used output format : User Defined EncoderSelected bitrate : 1024 kBit/sQuality : HighAdd ID3 tag : NoCommand line compressor : C:\Program Files (x86)\Exact Audio Copy\FLAC\FLAC.EXEAdditional command line options : -8 -e -p -V -T "ARTIST=%artist%" -T "TITLE=%title%" -T "ALBUM=%albumtitle%" -T "DATE=%year%" -T "TRACKNUMBER=%tracknr%" -T "GENRE=%genre%" -T "PERFORMER=%albuminterpret%" -T "COMPOSER=%composer%" %haslyrics%--tag-from-file=LYRICS="%lyricsfile%"%haslyrics% -T "ALBUMARTIST=%albumartist%" -T "DISCNUMBER=%cdnumber%" -T "TOTALDISCS=%totalcds%" -T "TOTALTRACKS=%numtracks%" -T "COMMENT=%comment%" %source% -o %dest%
TOC of the extracted CD
Track | Start | Length | Start sector | End sector --------------------------------------------------------- 1 | 0:00.00 | 5:56.30 | 0 | 26729 2 | 5:56.30 | 4:50.47 | 26730 | 48526 3 | 10:47.02 | 7:26.60 | 48527 | 82036 4 | 18:13.62 | 2:55.73 | 82037 | 95234 5 | 21:09.60 | 2:44.67 | 95235 | 107601 6 | 23:54.52 | 3:18.03 | 107602 | 122454 7 | 27:12.55 | 4:42.02 | 122455 | 143606 8 | 31:54.57 | 3:07.33 | 143607 | 157664 9 | 35:02.15 | 3:38.20 | 157665 | 174034 10 | 38:40.35 | 2:04.52 | 174035 | 183386 11 | 40:45.12 | 2:47.23 | 183387 | 195934 12 | 43:32.35 | 1:44.70 | 195935 | 203804 13 | 45:17.30 | 3:12.12 | 203805 | 218216
Track 1
Filename C:\EAC Rips\(1988) Toshifumi Hinata (日向敏文) - Another Graffiti {Alfa 32XA-213} [CD FLAC]\01 - 異国の女たち - リミックス・ヴァージョン.wav
Pre-gap length 0:00:02.00
Peak level 96.2 % Extraction speed 2.8 X Track quality 100.0 % Test CRC CA695583 Copy CRC CA695583 Accurately ripped (confidence 4) [0136BB00] (AR v2) Copy OK
Track 2
Filename C:\EAC Rips\(1988) Toshifumi Hinata (日向敏文) - Another Graffiti {Alfa 32XA-213} [CD FLAC]\02 - Sarah's Crime.wav
Pre-gap length 0:00:01.26
Peak level 100.0 % Extraction speed 2.8 X Track quality 100.0 % Test CRC BB8A48BF Copy CRC BB8A48BF Accurately ripped (confidence 4) [977674DD] (AR v2) Copy OK
Track 3
Filename C:\EAC Rips\(1988) Toshifumi Hinata (日向敏文) - Another Graffiti {Alfa 32XA-213} [CD FLAC]\03 - Midsummer Night〜小夜花.wav
Pre-gap length 0:00:01.16
Peak level 100.0 % Extraction speed 3.1 X Track quality 100.0 % Test CRC C49EE1BD Copy CRC C49EE1BD Accurately ripped (confidence 4) [4E3A7086] (AR v2) Copy OK
Track 4
Filename C:\EAC Rips\(1988) Toshifumi Hinata (日向敏文) - Another Graffiti {Alfa 32XA-213} [CD FLAC]\04 - Colored Air.wav
Peak level 92.7 % Extraction speed 2.4 X Track quality 99.9 % Test CRC 5F0A50F0 Copy CRC 5F0A50F0 Accurately ripped (confidence 4) [D549FDDF] (AR v2) Copy OK
Track 5
Filename C:\EAC Rips\(1988) Toshifumi Hinata (日向敏文) - Another Graffiti {Alfa 32XA-213} [CD FLAC]\05 - Milan and Osiris.wav
Peak level 89.1 % Extraction speed 3.5 X Track quality 100.0 % Test CRC D7B424E8 Copy CRC D7B424E8 Accurately ripped (confidence 4) [A59453D7] (AR v2) Copy OK
Track 6
Filename C:\EAC Rips\(1988) Toshifumi Hinata (日向敏文) - Another Graffiti {Alfa 32XA-213} [CD FLAC]\06 - Les Enfants.wav
Pre-gap length 0:00:03.00
Peak level 89.0 % Extraction speed 2.7 X Track quality 100.0 % Test CRC C064BD10 Copy CRC C064BD10 Accurately ripped (confidence 4) [2D3EED5D] (AR v2) Copy OK
Track 7
Filename C:\EAC Rips\(1988) Toshifumi Hinata (日向敏文) - Another Graffiti {Alfa 32XA-213} [CD FLAC]\07 - Passage.wav
Pre-gap length 0:00:01.66
Peak level 100.0 % Extraction speed 3.7 X Track quality 100.0 % Test CRC F537C4E2 Copy CRC F537C4E2 Accurately ripped (confidence 4) [579E8537] (AR v2) Copy OK
Track 8
Filename C:\EAC Rips\(1988) Toshifumi Hinata (日向敏文) - Another Graffiti {Alfa 32XA-213} [CD FLAC]\08 - Mirage.wav
Pre-gap length 0:00:01.13
Peak level 100.0 % Extraction speed 3.3 X Track quality 100.0 % Test CRC 96CDE9A0 Copy CRC 96CDE9A0 Accurately ripped (confidence 4) [FCDF88B7] (AR v2) Copy OK
Track 9
Filename C:\EAC Rips\(1988) Toshifumi Hinata (日向敏文) - Another Graffiti {Alfa 32XA-213} [CD FLAC]\09 - Sarah I. Adagio II. Rondeau III. Menuet.wav
Peak level 68.7 % Extraction speed 3.6 X Track quality 100.0 % Test CRC 58C59B63 Copy CRC 58C59B63 Accurately ripped (confidence 4) [63D8924B] (AR v2) Copy OK
Track 10
Filename C:\EAC Rips\(1988) Toshifumi Hinata (日向敏文) - Another Graffiti {Alfa 32XA-213} [CD FLAC]\10 - A Moment.wav
Pre-gap length 0:00:01.57
Peak level 100.0 % Extraction speed 3.8 X Track quality 100.0 % Test CRC 4EE997D7 Copy CRC 4EE997D7 Accurately ripped (confidence 4) [15D55B2C] (AR v2) Copy OK
Track 11
Filename C:\EAC Rips\(1988) Toshifumi Hinata (日向敏文) - Another Graffiti {Alfa 32XA-213} [CD FLAC]\11 - Pentimento.wav
Pre-gap length 0:00:01.22
Peak level 94.1 % Extraction speed 3.2 X Track quality 99.9 % Test CRC 93AB0263 Copy CRC 93AB0263 Accurately ripped (confidence 4) [8D5C87CA] (AR v2) Copy OK
Track 12
Filename C:\EAC Rips\(1988) Toshifumi Hinata (日向敏文) - Another Graffiti {Alfa 32XA-213} [CD FLAC]\12 - Menuet.wav
Peak level 68.3 % Extraction speed 2.8 X Track quality 99.8 % Test CRC 3916F402 Copy CRC 3916F402 Accurately ripped (confidence 4) [FFE1297C] (AR v2) Copy OK
Track 13
Filename C:\EAC Rips\(1988) Toshifumi Hinata (日向敏文) - Another Graffiti {Alfa 32XA-213} [CD FLAC]\13 - Chat d'Ete - Reflections.wav
Pre-gap length 0:00:02.33
Peak level 82.6 % Extraction speed 4.4 X Track quality 100.0 % Test CRC 0885E2DB Copy CRC 0885E2DB Accurately ripped (confidence 4) [BA06F647] (AR v2) Copy OK
All tracks accurately ripped
No errors occurred
End of status report
---- CUETools DB Plugin V2.1.6
[CTDB TOCID: Ol.MnMyc9_eH5b5cHB9JwJ0ik1g-] foundSubmit result: Ol.MnMyc9_eH5b5cHB9JwJ0ik1g- has been confirmedTrack | CTDB Status 1 | (10/10) Accurately ripped 2 | (10/10) Accurately ripped 3 | (10/10) Accurately ripped 4 | (10/10) Accurately ripped 5 | (10/10) Accurately ripped 6 | (10/10) Accurately ripped 7 | (10/10) Accurately ripped 8 | (10/10) Accurately ripped 9 | (10/10) Accurately ripped 10 | (10/10) Accurately ripped 11 | (10/10) Accurately ripped 12 | ( 9/10) Accurately ripped 13 | (10/10) Accurately ripped
==== Log checksum E7F7284D0D844F0973D7CF531F0FA9A293227C96878FED73357E186BC18CCED5 ====

Содержание индексной карты (.CUE)

REM GENRE ElectronicREM DATE 1988REM DISCID AD0B5D0DREM COMMENT "ExactAudioCopy v1.3"PERFORMER "Toshifumi Hinata"TITLE "Another Graffiti"FILE "01 - Ikoku no Onnatachi (Remix Version).wav" WAVE TRACK 01 AUDIO TITLE "Ikoku no Onnatachi (Remix Version)" PERFORMER "Toshifumi Hinata" INDEX 01 00:00:00 TRACK 02 AUDIO TITLE "Sarah's Crime" PERFORMER "Toshifumi Hinata" INDEX 00 05:55:10FILE "02 - Sarah's Crime.wav" WAVE INDEX 01 00:00:00 TRACK 03 AUDIO TITLE "Midsummer Night/Sayoka" PERFORMER "Toshifumi Hinata" INDEX 00 04:49:35FILE "03 - Midsummer Night,Sayoka.wav" WAVE INDEX 01 00:00:00FILE "04 - Colored Air.wav" WAVE TRACK 04 AUDIO TITLE "Colored Air" PERFORMER "Toshifumi Hinata" INDEX 01 00:00:00FILE "05 - Milan and Osiris.wav" WAVE TRACK 05 AUDIO TITLE "Milan and Osiris" PERFORMER "Toshifumi Hinata" INDEX 01 00:00:00 TRACK 06 AUDIO TITLE "Les Enfants" PERFORMER "Toshifumi Hinata" INDEX 00 02:41:67FILE "06 - Les Enfants.wav" WAVE INDEX 01 00:00:00 TRACK 07 AUDIO TITLE "Passage" PERFORMER "Toshifumi Hinata" INDEX 00 03:16:28FILE "07 - Passage.wav" WAVE INDEX 01 00:00:00 TRACK 08 AUDIO TITLE "Mirage" PERFORMER "Toshifumi Hinata" INDEX 00 04:40:67FILE "08 - Mirage.wav" WAVE INDEX 01 00:00:00FILE "09 - Sarah- I. Adagio,II. Rondeau,III. Menuet.wav" WAVE TRACK 09 AUDIO TITLE "Sarah: I. Adagio/II. Rondeau/III. Menuet" PERFORMER "Toshifumi Hinata" INDEX 01 00:00:00 TRACK 10 AUDIO TITLE "A Moment" PERFORMER "Toshifumi Hinata" INDEX 00 03:36:52FILE "10 - A Moment.wav" WAVE INDEX 01 00:00:00 TRACK 11 AUDIO TITLE "Pentimento" PERFORMER "Toshifumi Hinata" INDEX 00 02:03:35FILE "11 - Pentimento.wav" WAVE INDEX 01 00:00:00FILE "12 - Menuet.wav" WAVE TRACK 12 AUDIO TITLE "Menuet" PERFORMER "Toshifumi Hinata" INDEX 01 00:00:00 TRACK 13 AUDIO TITLE "Chat d'Ete/Reflections" PERFORMER "Toshifumi Hinata" INDEX 00 01:42:45FILE "13 - Chat d'Ete,Reflections.wav" WAVE INDEX 01 00:00:00

Отчет CUETools

[CUETools log; Date: 30.04.2019 22:42:54; Version: 2.1.6][CTDB TOCID: Ol.MnMyc9_eH5b5cHB9JwJ0ik1g-] found.Track | CTDB Status 1 | (11/11) Accurately ripped 2 | (11/11) Accurately ripped 3 | (11/11) Accurately ripped 4 | (11/11) Accurately ripped 5 | (11/11) Accurately ripped 6 | (11/11) Accurately ripped 7 | (11/11) Accurately ripped 8 | (11/11) Accurately ripped 9 | (11/11) Accurately ripped 10 | (11/11) Accurately ripped 11 | (11/11) Accurately ripped 12 | (10/11) Accurately ripped 13 | (11/11) Accurately ripped[AccurateRip ID: 001ad805-0101ae25-ad0b5d0d] found.Track [ CRC | V2 ] Status 01 [9bad6cb8|0136bb00] (0+4/4) Accurately ripped 02 [ecdcdbf9|977674dd] (0+4/4) Accurately ripped 03 [4eba8398|4e3a7086] (0+4/4) Accurately ripped 04 [44fdcf62|d549fddf] (0+4/4) Accurately ripped 05 [295ad7f1|a59453d7] (0+4/4) Accurately ripped 06 [9bfe8109|2d3eed5d] (0+4/4) Accurately ripped 07 [3b363cca|579e8537] (0+4/4) Accurately ripped 08 [6eb6a334|fcdf88b7] (0+4/4) Accurately ripped 09 [e6433e5a|63d8924b] (0+4/4) Accurately ripped 10 [6d150959|15d55b2c] (0+4/4) Accurately ripped 11 [c2e5aaeb|8d5c87ca] (0+4/4) Accurately ripped 12 [fb48a997|ffe1297c] (0+4/4) Accurately ripped 13 [3fd657ad|ba06f647] (0+4/4) Accurately ripped
Track Peak [ CRC32 ] [W/O NULL] [ LOG ] -- 100,0 [0A1FD523] [54BD8D86] 01 96,2 [CA695583] [6EA59D87] CRC32 02 99,9 [BB8A48BF] [3CBCA220] CRC32 03 100,0 [C49EE1BD] [24CC4F37] CRC32 04 92,7 [5F0A50F0] [C6314E46] CRC32 05 89,1 [D7B424E8] [3C9CBA5D] CRC32 06 89,0 [C064BD10] [F3A8F69F] CRC32 07 100,0 [F537C4E2] [EF151C23] CRC32 08 100,0 [96CDE9A0] [7B0A850D] CRC32 09 68,7 [58C59B63] [302FA258] CRC32 10 100,0 [4EE997D7] [CF21F0E3] CRC32 11 94,1 [93AB0263] [858A20F9] CRC32 12 68,3 [3916F402] [1CFF96AF] CRC32 13 82,6 [0885E2DB] [DCF8090B] CRC32


[geo-torrent.biz]_t_5725780.torrent
Torrent: Registered ·  [ 2019-05-04 22:09 ] ·  819a2b4f8a4f010e65cf3ca7e0c79946c6595a59

20 KB

Status: checked
Completed: 0 times
Size: 236 MB
Rating: 
(Votes: 0)
Say thanks: 0  Thanks
Похожие темы
[Profile]    [PM]
Display posts from previous:    
Reply to topic

The time now is: Today 01:31

All times are GMT + 7 Hours



You cannot post new topics in this forum
You cannot reply to topics in this forum
You cannot edit your posts in this forum
You cannot delete your posts in this forum
You cannot vote in polls in this forum
You cannot attach files in this forum
You can download files in this forum