Дела Империи №45. Постсоветская Россия: сделано в США / The Empire Files #45. Post-Soviet Russia, Made in the U.S.A. (Майк Приснер / Mike Prysner) [23.02.2017, интервью, HDTVRip 720p]

Reply to topic
DL-List and Torrent activity [Update пиров]
Size:  932 MB   |    Registered:  9 months 14 days   |    Completed:  0 times

Seeder not seen: Never

 
   
 
 
 
Author Message

КЭП

Post 03-May-2019 23:24

[Quote]

Дела Империи №45. Постсоветская Россия: сделано в США / The Empire Files #45. Post-Soviet Russia, Made in the U.S.A.
Дата/Год выхода: 23.02.2017
Страна: Венесуэла, США
Жанр: интервью
Продолжительность: 00:27:18
Перевод: Одноголосый закадровый
Русские субтитры: нет
Оригинальная аудиодорожка: английский
Режиссер: Майк Приснер / Mike Prysner
Телеканал: TeleSur
Описание: Американская журналистка Эбби Мартин, когда-то работавшая на канале Russia Today, берёт для латиноамериканского телеканала TeleSur интервью у Марка Амеса – американского журналиста, работавшего в России с 1993-го по 2008-й год. Интервью посвящено тому, как США проводили колониальный захват территории СССР, прежде всего РСФСР (России).
Доп. информация: Интервью представляет собой 45-й выпуск передачи «Дела Империи», снимавшейся в то время по заказу TeleSur. TeleSur («ТелеЮг» по-испански) – межгосударственное латиноамериканское телевидение, финансировавшееся правительствами нескольких стран региона. Основную поддержку каналу оказывало правительство Венесуэлы. В связи с последовательным ужесточением американских санкций против Венесуэлы канал стал испытывать перебои с финансированием, и с мая 2018-го команда программы «Дела Империи» не смогла больше делать её для TeleSur. Вслед за этим Э.Мартин обратилась через Интернет к обычным зрителям с предложением, чтобы зрители оплачивали дальнейшее производство программы совместно, понемногу от каждого. На предложение откликнулось достаточно много обычных людей, и сегодня «Дела Империи» создаётся только на деньги зрителей.
Символично, что данный выпуск программы вышел в эфир в день 99-летия Советской армии и Военно-морского флота.
Сэмпл: http://sendfile.su/1477392
качество: HDTVRip 720p
формат: MKV
Видео: H.264, 1280x720 (16:9), 4 000 Kbps, 29.970 fps
Аудио 1 (русский перевод): AC-3, 384 Kbps, 48.0 KHz, 2 ch
Аудио 2 (English original): AC-3, 384 Kbps, 48.0 KHz, 2 ch

MediaInfo

GeneralUnique ID : 315177492869640921388111819509844110827 (0xED1CFA25497516F1D4EDE2071C676DEB)Complete name : Дела Империи №45 - Постсоветская Россия. Сделано в США (2017).mkvFormat : MatroskaFormat version : Version 2File size : 932 MiBDuration : 27mn 18sOverall bit rate : 4 772 KbpsEncoded date : UTC 2019-02-27 09:40:57Writing application : mkvmerge v29.0.0 ('Like It Or Not') 64-bitWriting library : libebml v1.3.6 + libmatroska v1.4.9DURATION : 00:27:18.432000000NUMBER_OF_FRAMES : 51201NUMBER_OF_BYTES : 78644736_STATISTICS_WRITING_APP : mkvmerge v29.0.0 ('Like It Or Not') 64-bit_STATISTICS_WRITING_DATE_UTC : 2019-02-27 09:40:57_STATISTICS_TAGS : BPS DURATION NUMBER_OF_FRAMES NUMBER_OF_BYTES
VideoID : 1Format : AVCFormat/Info : Advanced Video CodecFormat profile : High@L3.1Format settings, CABAC : YesFormat settings, ReFrames : 4 framesCodec ID : V_MPEG4/ISO/AVCDuration : 27mn 18sBit rate : 4 000 KbpsWidth : 1 280 pixelsHeight : 720 pixelsDisplay aspect ratio : 16:9Frame rate mode : ConstantFrame rate : 29.970 fpsColor space : YUVChroma subsampling : 4:2:0Bit depth : 8 bitsScan type : ProgressiveBits/(Pixel*Frame) : 0.145Stream size : 764 MiB (82%)Writing library : x264 core 157 r2935 545de2fEncoding settings : cabac=1 / ref=3 / deblock=1:0:0 / analyse=0x3:0x113 / me=umh / subme=9 / psy=1 / psy_rd=1.00:0.00 / mixed_ref=1 / me_range=24 / chroma_me=1 / trellis=1 / 8x8dct=1 / cqm=0 / deadzone=21,11 / fast_pskip=1 / chroma_qp_offset=-2 / threads=6 / lookahead_threads=1 / sliced_threads=0 / nr=0 / decimate=1 / interlaced=0 / bluray_compat=0 / constrained_intra=0 / bframes=6 / b_pyramid=2 / b_adapt=1 / b_bias=0 / direct=1 / weightb=1 / open_gop=0 / weightp=2 / keyint=300 / keyint_min=29 / scenecut=40 / intra_refresh=0 / rc_lookahead=40 / rc=2pass / mbtree=1 / bitrate=4000 / ratetol=1.0 / qcomp=0.60 / qpmin=0 / qpmax=69 / qpstep=4 / cplxblur=20.0 / qblur=0.5 / ip_ratio=1.40 / aq=1:1.00Default : YesForced : No
Audio #1ID : 2Format : AC-3Format/Info : Audio Coding 3Mode extension : CM (complete main)Format settings, Endianness : BigCodec ID : A_AC3Duration : 27mn 18sBit rate mode : ConstantBit rate : 384 KbpsChannel(s) : 2 channelsChannel positions : Front: L RSampling rate : 48.0 KHzBit depth : 16 bitsCompression mode : LossyStream size : 75.0 MiB (8%)Title : Русский переводLanguage : RussianDefault : YesForced : No
Audio #2ID : 3Format : AC-3Format/Info : Audio Coding 3Mode extension : CM (complete main)Format settings, Endianness : BigCodec ID : A_AC3Duration : 27mn 18sBit rate mode : ConstantBit rate : 384 KbpsChannel(s) : 2 channelsChannel positions : Front: L RSampling rate : 48.0 KHzBit depth : 16 bitsCompression mode : LossyStream size : 75.0 MiB (8%)Title : English OriginalLanguage : EnglishDefault : NoForced : No

Скриншоты



[geo-torrent.biz]_t_5693984.torrent
Torrent: Registered ·  [ 2019-05-03 23:22 ] ·  2aa4d1871b17c2738c9be7447494c693e6f7192c

19 KB

Status: checked
Completed: 0 times
Size: 932 MB
Rating: 
(Votes: 0)
Say thanks: 0  Thanks
Похожие темы
[Profile]    [PM]
Display posts from previous:    
Reply to topic

The time now is: Today 10:15

All times are GMT + 7 Hours



You cannot post new topics in this forum
You cannot reply to topics in this forum
You cannot edit your posts in this forum
You cannot delete your posts in this forum
You cannot vote in polls in this forum
You cannot attach files in this forum
You can download files in this forum