(Acid Jazz, Downtempo) [CD] The Cinematic Orchestra - To Believe - 2019, FLAC (tracks+.cue), lossless

Reply to topic
DL-List and Torrent activity [Update пиров]
Size:  305 MB   |    Registered:  5 months 27 days   |    Completed:  0 times

Seeder not seen: Never

 
   
 
 
 
Author Message

Mr_Fox

Post 22-Apr-2019 01:45

[Quote]

The Cinematic Orchestra / To Believe
Жанр: Acid Jazz, Downtempo
Носитель: CD
Год издания: 2019
Издатель (лейбл): Ninja Tune
Номер по каталогу: WIGCD456
Страна исполнителя (группы): UK
Аудиокодек: FLAC (*.flac)
Тип рипа: tracks+.cue
Битрейт аудио: lossless
Продолжительность: 00:53:32
Источник: интернет (RED)
Наличие сканов в содержимом раздачи: нет
Треклист:
01. To Believe (feat. Moses Sumney) (05:27)
02. A Caged Bird / Imitations of Life (feat. Roots Manuva) (06:54)
03. Lessons (09:06)
04. Wait for Now / Leave the World (feat. Tawiah) (07:11)
05. The Workers of Art (06:16)
06. Zero One / This Fantasy (feat. Grey Reverend) (07:03)
07. A Promise (feat. Heidi Vogel) (11:35)

Лог создания рипа

Exact Audio Copy V1.3 from 2. September 2016
EAC extraction logfile from 15. March 2019, 13:04
Cinematic Orchestra / To Believe
Used drive : Optiarc DVD RW AD-7190S Adapter: 1 ID: 2
Read mode : SecureUtilize accurate stream : YesDefeat audio cache : YesMake use of C2 pointers : No
Read offset correction : 6Overread into Lead-In and Lead-Out : NoFill up missing offset samples with silence : YesDelete leading and trailing silent blocks : NoNull samples used in CRC calculations : YesUsed interface : Native Win32 interface for Win NT & 2000Gap handling : Appended to previous track
Used output format : User Defined EncoderSelected bitrate : 1024 kBit/sQuality : HighAdd ID3 tag : NoCommand line compressor : C:\Program Files (x86)\Exact Audio Copy\Flac\flac.exeAdditional command line options : -8 -V -T "ARTIST=%artist%" -T "TITLE=%title%" -T "ALBUM=%albumtitle%" -T "DATE=%year%" -T "TRACKNUMBER=%tracknr%" -T "GENRE=%genre%" -T "PERFORMER=%albuminterpret%" -T "COMPOSER=%composer%" %haslyrics%--tag-from-file=LYRICS="%lyricsfile%"%haslyrics% -T "ALBUMARTIST=%albumartist%" -T "DISCNUMBER=%cdnumber%" -T "TOTALDISCS=%totalcds%" -T "TOTALTRACKS=%numtracks%" -T "COMMENT=%comment%" %source% -o %dest%
TOC of the extracted CD
Track | Start | Length | Start sector | End sector --------------------------------------------------------- 1 | 0:00.00 | 5:28.65 | 0 | 24664 2 | 5:28.65 | 6:54.50 | 24665 | 55764 3 | 12:23.40 | 9:06.69 | 55765 | 96783 4 | 21:30.34 | 7:10.53 | 96784 | 129086 5 | 28:41.12 | 6:16.33 | 129087 | 157319 6 | 34:57.45 | 7:03.22 | 157320 | 189066 7 | 42:00.67 | 11:33.01 | 189067 | 241042
Track 1
Filename C:\New Rips\Cinematic Orchestra - 2019 - To Believe (WIGCD456)\01 To Believe (feat. Moses Sumney).wav
Pre-gap length 0:00:02.00
Peak level 96.3 % Extraction speed 4.6 X Track quality 100.0 % Test CRC 9EEDF36E Copy CRC 9EEDF36E Track not present in AccurateRip database Copy OK
Track 2
Filename C:\New Rips\Cinematic Orchestra - 2019 - To Believe (WIGCD456)\02 A Caged Bird , Imitations of Life (feat. Roots Manuva).wav
Peak level 98.8 % Extraction speed 4.8 X Track quality 99.9 % Test CRC 6E5BE405 Copy CRC 6E5BE405 Track not present in AccurateRip database Copy OK
Track 3
Filename C:\New Rips\Cinematic Orchestra - 2019 - To Believe (WIGCD456)\03 Lessons.wav
Pre-gap length 0:00:00.01
Peak level 98.8 % Extraction speed 6.3 X Track quality 100.0 % Test CRC C23D7FE4 Copy CRC C23D7FE4 Track not present in AccurateRip database Copy OK
Track 4
Filename C:\New Rips\Cinematic Orchestra - 2019 - To Believe (WIGCD456)\04 Wait for Now , Leave the World (feat. Tawiah).wav
Pre-gap length 0:00:00.01
Peak level 97.4 % Extraction speed 6.8 X Track quality 100.0 % Test CRC 21190C7A Copy CRC 21190C7A Track not present in AccurateRip database Copy OK
Track 5
Filename C:\New Rips\Cinematic Orchestra - 2019 - To Believe (WIGCD456)\05 The Workers of Art.wav
Pre-gap length 0:00:00.01
Peak level 95.6 % Extraction speed 7.2 X Track quality 100.0 % Test CRC 232A1FAC Copy CRC 232A1FAC Track not present in AccurateRip database Copy OK
Track 6
Filename C:\New Rips\Cinematic Orchestra - 2019 - To Believe (WIGCD456)\06 Zero One , This Fantasy (feat. Grey Reverend).wav
Peak level 96.5 % Extraction speed 6.8 X Track quality 99.9 % Test CRC 68EE2D67 Copy CRC 68EE2D67 Track not present in AccurateRip database Copy OK
Track 7
Filename C:\New Rips\Cinematic Orchestra - 2019 - To Believe (WIGCD456)\07 A Promise (feat. Heidi Vogel).wav
Pre-gap length 0:00:00.01
Peak level 98.8 % Extraction speed 8.6 X Track quality 100.0 % Test CRC 231EC4DF Copy CRC 231EC4DF Track not present in AccurateRip database Copy OK
None of the tracks are present in the AccurateRip database
No errors occurred
End of status report
---- CUETools DB Plugin V2.1.6
[CTDB TOCID: upgPHvaDeXP3I6uY.q6PeZioRE8-] foundSubmit result: already submittedTrack | CTDB Status 1 | (6/6) Accurately ripped 2 | (6/6) Accurately ripped 3 | (6/6) Accurately ripped 4 | (6/6) Accurately ripped 5 | (6/6) Accurately ripped 6 | (6/6) Accurately ripped 7 | (6/6) Accurately ripped
==== Log checksum D5084F09F44EC6CF9A7AEA30AC27BCE72589DDB15449C4D071866EAEB82434B0 ====

Содержание индексной карты (.CUE)

REM GENRE ElectronicREM DATE 2019REM DISCID 520C8D07REM COMMENT "ExactAudioCopy v1.3"FILE "01 To Believe (feat. Moses Sumney).wav" WAVE TRACK 01 AUDIO INDEX 01 00:00:00FILE "02 A Caged Bird , Imitations of Life (feat. Roots Manuva).wav" WAVE TRACK 02 AUDIO INDEX 01 00:00:00 TRACK 03 AUDIO INDEX 00 06:54:49FILE "03 Lessons.wav" WAVE INDEX 01 00:00:00 TRACK 04 AUDIO INDEX 00 09:06:68FILE "04 Wait for Now , Leave the World (feat. Tawiah).wav" WAVE INDEX 01 00:00:00 TRACK 05 AUDIO INDEX 00 07:10:52FILE "05 The Workers of Art.wav" WAVE INDEX 01 00:00:00FILE "06 Zero One , This Fantasy (feat. Grey Reverend).wav" WAVE TRACK 06 AUDIO INDEX 01 00:00:00 TRACK 07 AUDIO INDEX 00 07:03:21FILE "07 A Promise (feat. Heidi Vogel).wav" WAVE INDEX 01 00:00:00


[geo-torrent.biz]_t_5707530.torrent
Torrent: Registered ·  [ 2019-04-22 01:44 ] ·  58f2976e9ad0c8378d9882d0f39e0b9baec98004

25 KB

Status: checked
Completed: 0 times
Size: 305 MB
Rating: 
(Votes: 0)
Say thanks: 0  Thanks
Похожие темы
[Profile]    [PM]
Display posts from previous:    
Reply to topic

The time now is: Today 06:57

All times are GMT + 7 Hours



You cannot post new topics in this forum
You cannot reply to topics in this forum
You cannot edit your posts in this forum
You cannot delete your posts in this forum
You cannot vote in polls in this forum
You cannot attach files in this forum
You can download files in this forum