(Nu Jazz, Acid Jazz, Latin Jazz) [CD] Gerardo Frisina - Hi Note (2003), FLAC (tracks+.cue), lossless

Reply to topic
DL-List and Torrent activity [Update пиров]
Size:  459 MB   |    Registered:  5 months 23 days   |    Completed:  0 times

Seeder not seen: Never

 
   
 
 
 
Author Message

Mr_Fox

Post 22-Apr-2019 01:45

[Quote]

Gerardo Frisina - Hi Note
Жанр: Nu Jazz, Acid Jazz, Latin Jazz
Носитель: CD
Страна-производитель диска (релиза): Italy
Год издания: 2003
Издатель (лейбл): Schema
Номер по каталогу: SCCD 369
Аудиокодек: FLAC (*.flac)
Тип рипа: tracks+.cue
Битрейт аудио: lossless
Продолжительность: 01:01:53
Источник: naftamusic
Наличие сканов: да

01. Inviolatin
02. Joyas
03. Bluesanova
04. Intenso
05. Beyond The Moon
06. Saeta '03
07. Cubana
08. Ombrosso
09. Zambele
10. Sophisticated Samba
11. Heading For What I Know
12. On The Edge

Лог создания рипа

Exact Audio Copy V1.3 from 2. September 2016
EAC extraction logfile from 23. March 2019, 20:27
Gerardo Frisina / Hi Note
Used drive : HL-DT-STDVDRAM GT50N Adapter: 1 ID: 0
Read mode : SecureUtilize accurate stream : YesDefeat audio cache : YesMake use of C2 pointers : No
Read offset correction : 103Overread into Lead-In and Lead-Out : NoFill up missing offset samples with silence : YesDelete leading and trailing silent blocks : NoNull samples used in CRC calculations : YesUsed interface : Native Win32 interface for Win NT & 2000Gap handling : Appended to previous track
Used output format : User Defined EncoderSelected bitrate : 1024 kBit/sQuality : HighAdd ID3 tag : NoCommand line compressor : C:\Program Files (x86)\Exact Audio Copy\FLAC\FLAC.EXEAdditional command line options : -0 -V -T "ARTIST=%artist%" -T "TITLE=%title%" -T "ALBUM=%albumtitle%" -T "DATE=%year%" -T "TRACKNUMBER=%tracknr%" -T "TOTALTRACKS=%numtracks%" -T "GENRE=%genre%" -T "COMMENT=Naftamusic Release!" %source%
TOC of the extracted CD
Track | Start | Length | Start sector | End sector --------------------------------------------------------- 1 | 0:00.00 | 4:45.08 | 0 | 21382 2 | 4:45.08 | 6:45.57 | 21383 | 51814 3 | 11:30.65 | 5:45.67 | 51815 | 77756 4 | 17:16.57 | 4:56.23 | 77757 | 99979 5 | 22:13.05 | 3:21.50 | 99980 | 115104 6 | 25:34.55 | 7:02.58 | 115105 | 146812 7 | 32:37.38 | 5:48.53 | 146813 | 172965 8 | 38:26.16 | 3:52.60 | 172966 | 190425 9 | 42:19.01 | 6:33.37 | 190426 | 219937 10 | 48:52.38 | 3:24.10 | 219938 | 235247 11 | 52:16.48 | 5:26.18 | 235248 | 259715 12 | 57:42.66 | 4:11.02 | 259716 | 278542
Track 1
Filename E:\Nafta Releases\Gerardo Frisina - Hi Note (2003)[FLAC] - Naftamusic\01 - Inviolatin.wav
Pre-gap length 0:00:02.00
Peak level 98.8 % Extraction speed 1.0 X Track quality 100.0 % Test CRC AF8451C0 Copy CRC AF8451C0 Track not present in AccurateRip database Copy OK
Track 2
Filename E:\Nafta Releases\Gerardo Frisina - Hi Note (2003)[FLAC] - Naftamusic\02 - Joyas.wav
Pre-gap length 0:00:00.22
Peak level 99.6 % Extraction speed 1.1 X Track quality 100.0 % Test CRC 80EAFFCF Copy CRC 80EAFFCF Track not present in AccurateRip database Copy OK
Track 3
Filename E:\Nafta Releases\Gerardo Frisina - Hi Note (2003)[FLAC] - Naftamusic\03 - Bluesanova.wav
Pre-gap length 0:00:00.05
Peak level 100.0 % Extraction speed 1.2 X Track quality 99.9 % Test CRC 819ED5D8 Copy CRC 819ED5D8 Track not present in AccurateRip database Copy OK
Track 4
Filename E:\Nafta Releases\Gerardo Frisina - Hi Note (2003)[FLAC] - Naftamusic\04 - Intenso.wav
Peak level 100.0 % Extraction speed 1.3 X Track quality 100.0 % Test CRC 0CFE41A7 Copy CRC 0CFE41A7 Track not present in AccurateRip database Copy OK
Track 5
Filename E:\Nafta Releases\Gerardo Frisina - Hi Note (2003)[FLAC] - Naftamusic\05 - Beyond The Moon.wav
Pre-gap length 0:00:01.58
Peak level 98.8 % Extraction speed 1.3 X Track quality 100.0 % Test CRC D6AF827B Copy CRC D6AF827B Track not present in AccurateRip database Copy OK
Track 6
Filename E:\Nafta Releases\Gerardo Frisina - Hi Note (2003)[FLAC] - Naftamusic\06 - Saeta '03.wav
Peak level 97.7 % Extraction speed 1.5 X Track quality 100.0 % Test CRC 7A801B28 Copy CRC 7A801B28 Track not present in AccurateRip database Copy OK
Track 7
Filename E:\Nafta Releases\Gerardo Frisina - Hi Note (2003)[FLAC] - Naftamusic\07 - Cubana.wav
Peak level 100.0 % Extraction speed 1.6 X Track quality 100.0 % Test CRC 6F429B2C Copy CRC 6F429B2C Track not present in AccurateRip database Copy OK
Track 8
Filename E:\Nafta Releases\Gerardo Frisina - Hi Note (2003)[FLAC] - Naftamusic\08 - Ombroso.wav
Pre-gap length 0:00:00.19
Peak level 100.0 % Extraction speed 1.5 X Track quality 100.0 % Test CRC C30903DB Copy CRC C30903DB Track not present in AccurateRip database Copy OK
Track 9
Filename E:\Nafta Releases\Gerardo Frisina - Hi Note (2003)[FLAC] - Naftamusic\09 - Zambele.wav
Pre-gap length 0:00:00.55
Peak level 99.9 % Extraction speed 1.7 X Track quality 100.0 % Test CRC 5C815C0B Copy CRC 5C815C0B Track not present in AccurateRip database Copy OK
Track 10
Filename E:\Nafta Releases\Gerardo Frisina - Hi Note (2003)[FLAC] - Naftamusic\10 - Sophisticated Samba.wav
Peak level 100.0 % Extraction speed 1.6 X Track quality 100.0 % Test CRC CBF9F4F2 Copy CRC CBF9F4F2 Track not present in AccurateRip database Copy OK
Track 11
Filename E:\Nafta Releases\Gerardo Frisina - Hi Note (2003)[FLAC] - Naftamusic\11 - Heading For What I Know.wav
Pre-gap length 0:00:00.42
Peak level 100.0 % Extraction speed 1.7 X Track quality 100.0 % Test CRC 68D48F58 Copy CRC 68D48F58 Track not present in AccurateRip database Copy OK
Track 12
Filename E:\Nafta Releases\Gerardo Frisina - Hi Note (2003)[FLAC] - Naftamusic\12 - On The Edge.wav
Pre-gap length 0:00:00.69
Peak level 100.0 % Extraction speed 1.5 X Track quality 99.9 % Test CRC 0D0D497C Copy CRC 0D0D497C Track not present in AccurateRip database Copy OK
None of the tracks are present in the AccurateRip database
No errors occurred
End of status report
==== Log checksum FB861CA383BA980111FCC4602D34530BB125920D3F8E819713C630342606D8BB ====

Содержание индексной карты (.CUE)

REM GENRE "Electronic, Jazz"REM DATE 2003REM DISCID AE0E810CREM COMMENT "ExactAudioCopy v1.3"PERFORMER "Gerardo Frisina"TITLE "Hi Note "REM COMPOSER ""FILE "01 - Inviolatin.wav" WAVE TRACK 01 AUDIO TITLE "Inviolatin" PERFORMER "Gerardo Frisina" REM COMPOSER "" INDEX 01 00:00:00 TRACK 02 AUDIO TITLE "Joyas" PERFORMER "Gerardo Frisina" REM COMPOSER "" INDEX 00 04:44:61FILE "02 - Joyas.wav" WAVE INDEX 01 00:00:00 TRACK 03 AUDIO TITLE "Bluesanova" PERFORMER "Gerardo Frisina" REM COMPOSER "" INDEX 00 06:45:52FILE "03 - Bluesanova.wav" WAVE INDEX 01 00:00:00FILE "04 - Intenso.wav" WAVE TRACK 04 AUDIO TITLE "Intenso" PERFORMER "Gerardo Frisina" REM COMPOSER "" INDEX 01 00:00:00 TRACK 05 AUDIO TITLE "Beyond The Moon" PERFORMER "Gerardo Frisina" REM COMPOSER "" INDEX 00 04:54:40FILE "05 - Beyond The Moon.wav" WAVE INDEX 01 00:00:00FILE "06 - Saeta '03.wav" WAVE TRACK 06 AUDIO TITLE "Saeta '03" PERFORMER "Gerardo Frisina" REM COMPOSER "" INDEX 01 00:00:00FILE "07 - Cubana.wav" WAVE TRACK 07 AUDIO TITLE "Cubana" PERFORMER "Gerardo Frisina" REM COMPOSER "" INDEX 01 00:00:00 TRACK 08 AUDIO TITLE "Ombroso" PERFORMER "Gerardo Frisina" REM COMPOSER "" INDEX 00 05:48:34FILE "08 - Ombroso.wav" WAVE INDEX 01 00:00:00 TRACK 09 AUDIO TITLE "Zambele" PERFORMER "Gerardo Frisina" REM COMPOSER "" INDEX 00 03:52:05FILE "09 - Zambele.wav" WAVE INDEX 01 00:00:00FILE "10 - Sophisticated Samba.wav" WAVE TRACK 10 AUDIO TITLE "Sophisticated Samba" PERFORMER "Gerardo Frisina" REM COMPOSER "" INDEX 01 00:00:00 TRACK 11 AUDIO TITLE "Heading For What I Know" PERFORMER "Gerardo Frisina" REM COMPOSER "" INDEX 00 03:23:43FILE "11 - Heading For What I Know.wav" WAVE INDEX 01 00:00:00 TRACK 12 AUDIO TITLE "On The Edge" PERFORMER "Gerardo Frisina" REM COMPOSER "" INDEX 00 05:25:24FILE "12 - On The Edge.wav" WAVE INDEX 01 00:00:00

Лог проверки качества

AUDIOCHECKER v2.0 beta (build 457) - by Dester - opdester@freemail.hu~~~~~~~~~~~~~~~~~~~~~~~~~~~~~~~~~~-=== DO NOT EDIT THIS FILE! ===-
Path: ...\Gerardo Frisina - Hi Note (2003)
01 -=- 01 - Inviolatin.flac -=- CDDA (100%)02 -=- 02 - Joyas.flac -=- CDDA (100%)03 -=- 03 - Bluesanova.flac -=- CDDA (100%)04 -=- 04 - Intenso.flac -=- CDDA (100%)05 -=- 05 - Beyond The Moon.flac -=- CDDA (99%)06 -=- 06 - Saeta '03.flac -=- CDDA (100%)07 -=- 07 - Cubana.flac -=- CDDA (100%)08 -=- 08 - Ombroso.flac -=- CDDA (100%)09 -=- 09 - Zambele.flac -=- CDDA (100%)10 -=- 10 - Sophisticated Samba.flac -=- CDDA (100%)11 -=- 11 - Heading For What I Know.flac -=- CDDA (99%)12 -=- 12 - On The Edge.flac -=- CDDA (100%)
Summary 99,83% CDDA
149353172


[geo-torrent.biz]_t_5710062.torrent
Torrent: Registered ·  [ 2019-04-22 01:44 ] ·  d735a024b8f46e883c3877fd1c260ba15e1a0066

19 KB

Status: checked
Completed: 0 times
Size: 459 MB
Rating: 
(Votes: 0)
Say thanks: 0  Thanks
Похожие темы
[Profile]    [PM]
Display posts from previous:    
Reply to topic

The time now is: Today 08:54

All times are GMT + 7 Hours



You cannot post new topics in this forum
You cannot reply to topics in this forum
You cannot edit your posts in this forum
You cannot delete your posts in this forum
You cannot vote in polls in this forum
You cannot attach files in this forum
You can download files in this forum