(Top 40, Pop, Pop-Rock, Electronic, Hip Hop, House) [CD] VA - BRAVO Hits 2 (2CD) - 1992, FLAC (image+.cue), lossless

Reply to topic
DL-List and Torrent activity [Update пиров]
Size:  867 MB   |    Registered:  10 months   |    Completed:  0 times

Seeder not seen: Never

 
   
 
 
 
Author Message

Кейт

Post 17-Apr-2019 13:47

[Quote]

BRAVO Hits 2 Жанр: Top 40, Pop, Pop-Rock, Electronic, Hip Hop, House, Electro, Hip-House, Synthpop, Europop, R&B, Pop Rap, Latin, Euro House, Downtempo, Indie Rock, Punk
Носитель: CD
Страна-производитель диска: Germany
Год издания: 30.09.1992
Издатель: EastWest
Номер по каталогу: 9548-31540-2
Аудиокодек: FLAC (*.flac)
Тип рипа: image+.cue
Продолжительность: 02:07:01
Источник: интернет
Наличие сканов в содержимом раздачи: да
Треклист:

CD1 01:03:17

01. Dr. Alban - It´S My Life
02. Prince & The New Power Generation - Sexy M.F.
03. Jimmy Nail - Ain´T No Doubt
04. Undercover - Baker Street
05. Marky Mark & The F.B. - You Gotta Believe
06. Del Tha Funkee Homosapien - Dr. Bombay
07. Shabba Ranks - Mr. Loverman
08. En Vogue - Giving Him Something ...
09. Inner Circle - Sweat
10. The Shamen - Lsi
11. Edelweiss - Raumschiff Edelweiss
12. Ugly Kid Joe - Everything About You
13. Connie Francis - Paradiso
14. Kim Wilde - Who Do You Think You Are
15. B 52`S - Good Stuff
16. Otis Redding - Try A Little Tenderness

CD2 01:03:44

01. Erasure - Take A Chance On Me
02. Double You - We All Need Love
03. S.B. Hawkins - I Wish I Was Your Lover
04. Right Said Fred - Daydream
05. The Sisters Of Mercy - Temple Of Love
06. Mr. Big - Just Take My Heart
07. Alice Cooper - School´S Out
08. Die Fantastischen Vier - Die Da!?
09. Snap - Rhythm Is A Dancer
10. Betty Boo - Let Me Take You There
11. Errol Brown - Secret Rendezvous
12. Red Hot Chilli Peppers - Under The Bridge
13. Smokie - Your Are So Different Tonight
14. Saigon Kick - Love Is On The Way
15. Omd - Maid Of Orleans
16. Westernhagen - Steh´ Auf

Лог создания рипа CD1

Exact Audio Copy V1.0 beta 1 from 15. November 2010
EAC extraction logfile from 19. January 2013, 16:14
Various / Bravo Hits II (CD1)
Used drive : PIONEER DVD-RW DVR-110D Adapter: 2 ID: 2
Read mode : SecureUtilize accurate stream : YesDefeat audio cache : YesMake use of C2 pointers : No
Read offset correction : 48Overread into Lead-In and Lead-Out : NoFill up missing offset samples with silence : YesDelete leading and trailing silent blocks : NoNull samples used in CRC calculations : YesUsed interface : Native Win32 interface for Win NT & 2000
Used output format : User Defined EncoderSelected bitrate : 768 kBit/sQuality : HighAdd ID3 tag : NoCommand line compressor : C:\Program Files\Exact Audio Copy\FLAC\FLAC.EXEAdditional command line options : -6 -V -T "ARTIST=%a" -T "TITLE=%t" -T "ALBUM=%g" -T "DATE=%y" -T "TRACKNUMBER=%n" -T "GENRE=%m" -T "COMMENT=%e" %j--picture="%i"%j %s -o %d
TOC of the extracted CD
Track | Start | Length | Start sector | End sector --------------------------------------------------------- 1 | 0:00.00 | 4:02.45 | 0 | 18194 2 | 4:02.45 | 5:27.05 | 18195 | 42724 3 | 9:29.50 | 3:57.65 | 42725 | 60564 4 | 13:27.40 | 4:06.35 | 60565 | 79049 5 | 17:34.00 | 4:32.30 | 79050 | 99479 6 | 22:06.30 | 3:54.07 | 99480 | 117036 7 | 26:00.37 | 3:39.50 | 117037 | 133511 8 | 29:40.12 | 3:56.48 | 133512 | 151259 9 | 33:36.60 | 3:47.27 | 151260 | 168311 10 | 37:24.12 | 3:44.18 | 168312 | 185129 11 | 41:08.30 | 3:38.57 | 185130 | 201536 12 | 44:47.12 | 4:06.38 | 201537 | 220024 13 | 48:53.50 | 2:40.37 | 220025 | 232061 14 | 51:34.12 | 3:47.23 | 232062 | 249109 15 | 55:21.35 | 4:07.52 | 249110 | 267686 16 | 59:29.12 | 3:47.63 | 267687 | 284774
Range status and errors
Selected range
Filename D:\rip.flacmusic.ru\Various - Bravo Hits II (CD1).wav
Peak level 98.3 % Extraction speed 0.4 X Range quality 100.0 % Test CRC A1BC2BE8 Copy CRC A1BC2BE8 Copy OK
No errors occurred
AccurateRip summary
Track 1 accurately ripped (confidence 27) [C06FBB2C]Track 2 accurately ripped (confidence 2) [9D0E86A3]Track 3 accurately ripped (confidence 2) [7D8414E0]Track 4 accurately ripped (confidence 2) [50F22E65]Track 5 accurately ripped (confidence 2) [66528682]Track 6 accurately ripped (confidence 2) [35EA7D75]Track 7 accurately ripped (confidence 2) [985380AC]Track 8 accurately ripped (confidence 2) [9D18A14F]Track 9 accurately ripped (confidence 26) [4708A3FE]Track 10 accurately ripped (confidence 2) [23A2C92B]Track 11 accurately ripped (confidence 2) [23215B96]Track 12 accurately ripped (confidence 2) [E36709E7]Track 13 accurately ripped (confidence 2) [4666B814]Track 14 accurately ripped (confidence 2) [DD2C58B2]Track 15 accurately ripped (confidence 2) [1934F703]Track 16 accurately ripped (confidence 28) [C2B5ACB9]
All tracks accurately ripped
End of status report
==== Log checksum 71842F494C24998A328BDC8DB6C10DDECD2634E54CAC408319D551C69D1A0109 ====

Лог создания рипа CD2

Exact Audio Copy V1.0 beta 1 from 15. November 2010
EAC extraction logfile from 19. January 2013, 16:44
Various / Bravo Hits II
Used drive : PIONEER DVD-RW DVR-110D Adapter: 2 ID: 2
Read mode : SecureUtilize accurate stream : YesDefeat audio cache : YesMake use of C2 pointers : No
Read offset correction : 48Overread into Lead-In and Lead-Out : NoFill up missing offset samples with silence : YesDelete leading and trailing silent blocks : NoNull samples used in CRC calculations : YesUsed interface : Native Win32 interface for Win NT & 2000
Used output format : User Defined EncoderSelected bitrate : 768 kBit/sQuality : HighAdd ID3 tag : NoCommand line compressor : C:\Program Files\Exact Audio Copy\FLAC\FLAC.EXEAdditional command line options : -6 -V -T "ARTIST=%a" -T "TITLE=%t" -T "ALBUM=%g" -T "DATE=%y" -T "TRACKNUMBER=%n" -T "GENRE=%m" -T "COMMENT=%e" %j--picture="%i"%j %s -o %d
TOC of the extracted CD
Track | Start | Length | Start sector | End sector --------------------------------------------------------- 1 | 0:00.00 | 3:44.70 | 0 | 16869 2 | 3:44.70 | 3:38.05 | 16870 | 33224 3 | 7:23.00 | 4:15.00 | 33225 | 52349 4 | 11:38.00 | 3:41.50 | 52350 | 68974 5 | 15:19.50 | 4:22.45 | 68975 | 88669 6 | 19:42.20 | 3:45.20 | 88670 | 105564 7 | 23:27.40 | 3:28.55 | 105565 | 121219 8 | 26:56.20 | 4:25.00 | 121220 | 141094 9 | 31:21.20 | 3:43.42 | 141095 | 157861 10 | 35:04.62 | 3:58.33 | 157862 | 175744 11 | 39:03.20 | 3:34.65 | 175745 | 191859 12 | 42:38.10 | 4:25.50 | 191860 | 211784 13 | 47:03.60 | 3:34.52 | 211785 | 227886 14 | 50:38.37 | 4:23.70 | 227887 | 247681 15 | 55:02.32 | 4:11.38 | 247682 | 266544 16 | 59:13.70 | 4:30.05 | 266545 | 286799
Range status and errors
Selected range
Filename D:\rip.flacmusic.ru\Various - Bravo Hits II (CD2).wav
Peak level 100.0 % Extraction speed 0.4 X Range quality 100.0 % Test CRC 869AA63E Copy CRC 869AA63E Copy OK
No errors occurred
AccurateRip summary
Track 1 accurately ripped (confidence 2) [F8C387E9]Track 2 accurately ripped (confidence 3) [E41EBE8D]Track 3 accurately ripped (confidence 3) [129EA08D]Track 4 accurately ripped (confidence 3) [F56FA40D]Track 5 accurately ripped (confidence 3) [9DC8A12F]Track 6 accurately ripped (confidence 3) [9E9944C0]Track 7 accurately ripped (confidence 3) [A7CCAD21]Track 8 accurately ripped (confidence 3) [AB998E96]Track 9 accurately ripped (confidence 3) [EBF9BD30]Track 10 accurately ripped (confidence 3) [FA39DBA0]Track 11 accurately ripped (confidence 3) [EB30C3B7]Track 12 accurately ripped (confidence 3) [05A713F0]Track 13 accurately ripped (confidence 3) [7B52BBF2]Track 14 accurately ripped (confidence 3) [6BACF7F8]Track 15 accurately ripped (confidence 3) [5DE59A94]Track 16 accurately ripped (confidence 3) [C7D10ECB]
All tracks accurately ripped
End of status report
==== Log checksum EF00A1553E31D259CD29270C50738AAEC801E6C759D9A3A4DF82168025B7ABF5 ====

Содержание индексной карты (.CUE) CD1

REM GENRE PopREM DATE 1992REM DISCID E30ED510REM COMMENT "ExactAudioCopy v1.0b1"PERFORMER "Various"TITLE "Bravo Hits (1992) Vol.2 (CD 1)"FILE "Bravo Hits (1992) Vol.2 (CD 1).flac" WAVE TRACK 01 AUDIO TITLE "It's My Life" PERFORMER "Dr. Alban" INDEX 01 00:00:00 TRACK 02 AUDIO TITLE "Sexy MF" PERFORMER "Prince & The N.P.G." INDEX 00 04:01:00 INDEX 01 04:02:45 TRACK 03 AUDIO TITLE "Ain't No Doubt" PERFORMER "Jimmy Nail" INDEX 00 09:28:00 INDEX 01 09:29:50 TRACK 04 AUDIO TITLE "Baker Street" PERFORMER "Undercover" INDEX 00 13:25:62 INDEX 01 13:27:40 TRACK 05 AUDIO TITLE "You Gotta Believe" PERFORMER "Marky Mark And The Funky Bunch" INDEX 00 17:32:37 INDEX 01 17:34:00 TRACK 06 AUDIO TITLE "Dr. Bombay" PERFORMER "Del Tha Funkee Homosapien" INDEX 00 22:04:50 INDEX 01 22:06:30 TRACK 07 AUDIO TITLE "Mr. Loverman" PERFORMER "Shabba Ranks" INDEX 00 25:58:25 INDEX 01 26:00:37 TRACK 08 AUDIO TITLE "Giving Him Something He Can Feel" PERFORMER "En Vogue" INDEX 00 29:38:25 INDEX 01 29:40:12 TRACK 09 AUDIO TITLE "Sweat" PERFORMER "Inner Circle" INDEX 00 33:34:62 INDEX 01 33:36:60 TRACK 10 AUDIO TITLE "LSI" PERFORMER "The Shamen" INDEX 00 37:22:50 INDEX 01 37:24:12 TRACK 11 AUDIO TITLE "Raumschiff Edelweiss" PERFORMER "Edelweiss" INDEX 00 41:07:00 INDEX 01 41:08:30 TRACK 12 AUDIO TITLE "Everything About You" PERFORMER "Ugly Kid Joe" INDEX 00 44:45:50 INDEX 01 44:47:12 TRACK 13 AUDIO TITLE "Paradiso" PERFORMER "Connie Francis" INDEX 00 48:53:00 INDEX 01 48:53:50 TRACK 14 AUDIO TITLE "Who Do You Think You Are" PERFORMER "Kim Wilde" INDEX 00 51:33:00 INDEX 01 51:34:12 TRACK 15 AUDIO TITLE "Good Stuff" PERFORMER "B 52's" INDEX 00 55:19:62 INDEX 01 55:21:35 TRACK 16 AUDIO TITLE "Try A Little Tenderness" PERFORMER "Otis Redding" INDEX 00 59:28:00 INDEX 01 59:29:12

Содержание индексной карты (.CUE) CD2

REM GENRE PopREM DATE 1992REM DISCID C40EF010REM COMMENT "ExactAudioCopy v1.0b1"PERFORMER "Various"TITLE "Bravo Hits (1992) Vol.2 (CD 2)"FILE "Bravo Hits (1992) Vol.2 (CD 2).flac" WAVE TRACK 01 AUDIO TITLE "Abba-Esque / Take A Chance On Me" PERFORMER "Erasure" INDEX 01 00:00:00 TRACK 02 AUDIO TITLE "We All Need Love" PERFORMER "Double You" INDEX 00 03:44:00 INDEX 01 03:44:70 TRACK 03 AUDIO TITLE "Damn, I Wish I Was Your Lover" PERFORMER "Sophie B. Hawkins" INDEX 00 07:22:00 INDEX 01 07:23:00 TRACK 04 AUDIO TITLE "Daydream" PERFORMER "Right Said Fred" INDEX 00 11:37:00 INDEX 01 11:38:00 TRACK 05 AUDIO TITLE "Temple Of Love (1992)" PERFORMER "The Sisters Of Mercy" INDEX 00 15:17:62 INDEX 01 15:19:50 TRACK 06 AUDIO TITLE "Just Take My Heart" PERFORMER "Mr. Big" INDEX 00 19:40:50 INDEX 01 19:42:20 TRACK 07 AUDIO TITLE "School's Out" PERFORMER "Alice Cooper" INDEX 00 23:26:50 INDEX 01 23:27:40 TRACK 08 AUDIO TITLE "Die Da!?! + Special Bravo Rap" PERFORMER "Die Fantastischen Vier" INDEX 00 26:55:00 INDEX 01 26:56:20 TRACK 09 AUDIO TITLE "Rhythm Is A Dancer" PERFORMER "Snap!" INDEX 00 31:20:00 INDEX 01 31:21:20 TRACK 10 AUDIO TITLE "Let Me Take You There" PERFORMER "Betty Boo" INDEX 00 35:03:12 INDEX 01 35:04:62 TRACK 11 AUDIO TITLE "Secret Rendezvous" PERFORMER "Errol Brown" INDEX 00 39:01:62 INDEX 01 39:03:20 TRACK 12 AUDIO TITLE "Under The Bridge" PERFORMER "Red Hot Chili Peppers" INDEX 00 42:36:00 INDEX 01 42:38:10 TRACK 13 AUDIO TITLE "You Are So Different Tonight" PERFORMER "Smokie" INDEX 00 47:02:12 INDEX 01 47:03:60 TRACK 14 AUDIO TITLE "Love Is On The Way" PERFORMER "Saigon Kick" INDEX 00 50:37:50 INDEX 01 50:38:37 TRACK 15 AUDIO TITLE "Maid Of Orleans" PERFORMER "Orchestral Manoeuvres In The Dark" INDEX 00 55:01:37 INDEX 01 55:02:32 TRACK 16 AUDIO TITLE "Steh' Auf" PERFORMER "Westernhagen" INDEX 00 59:13:12 INDEX 01 59:13:70
Да не оскудеет рука нажавшего кнопку "Спасибо"
и оставшегося на раздаче!


[geo-torrent.biz]_t_5719790.torrent
Torrent: Registered ·  [ 2019-04-17 13:47 ] ·  af1994b7bcb7abf2a8541c938a9400fc12f0bbce

18 KB

Status: checked
Completed: 0 times
Size: 867 MB
Rating: 
(Votes: 0)
Say thanks: 0  Thanks
Похожие темы
[Profile]    [PM]
Display posts from previous:    
Reply to topic

The time now is: Today 10:06

All times are GMT + 7 Hours



You cannot post new topics in this forum
You cannot reply to topics in this forum
You cannot edit your posts in this forum
You cannot delete your posts in this forum
You cannot vote in polls in this forum
You cannot attach files in this forum
You can download files in this forum