(Score) [CD] Терминал / Terminal (Promo) (by Lab Report) - 1995, FLAC (image+.cue), lossless

Reply to topic
DL-List and Torrent activity [Update пиров]
Size:  223 MB   |    Registered:  11 months   |    Completed:  0 times

Seeder not seen: Never

 
   
 
 
 
Author Message

SVP

Post 18-Mar-2019 00:46

[Quote]

Lab Report ‎ / Terminal (Original Soundtrack)
Жанр: Industrial, Experimental
Носитель: CD
Страна-производитель диска (релиза): USA
Год издания: 1995
Издатель (лейбл): Invisible
Номер по каталогу: INV039-pr
Страна исполнителя (группы): USA
Аудиокодек: FLAC (*.flac)
Тип рипа: image+.cue
Битрейт аудио: lossless
Продолжительность: 00:58:15
Источник: собственный рип
Наличие сканов в содержимом раздачи: да
Треклист:
1. The Information 5:42
2. Becoming Aware 4:53
3. The Act 8:57
4. Contemplation 4:27
5. Clean Up 4:39
6. Progression 3:04
7. Change Of Mind 11:50
8. Ascent 14:39

Лог создания рипа

Exact Audio Copy V1.3 from 2. September 2016
Отчёт EAC об извлечении, выполненном 16. марта 2019, 13:01
Lab Report / Terminal (Original Soundtrack) - 1995
Дисковод: PIONEER BD-RW BDR-TD03 Adapter: 1 ID: 0
Режим чтения : ДостоверностьИспользование точного потока : ДаОтключение кэша аудио : ДаИспользование указателей C2 : Нет
Коррекция смещения при чтении : 667Способность читать области Lead-in и Lead-out : НетЗаполнение пропущенных сэмплов тишиной : ДаУдаление блоков с тишиной в начале и конце : НетПри вычислениях CRC использовались нулевые сэмплы : ДаИнтерфейс : Встроенный Win32-интерфейс для Win NT/2000
Выходной формат : Пользовательский кодировщикВыбранный битрейт : 128 kBit/sКачество : ВысокийДобавление ID3-тега : НетУтилита сжатия : C:\Program Files (x86)\Exact Audio Copy\Flac\flac.exeДополнительные параметры : -V -8 -T "Date=%year%" -T "Genre=%genre%" %source%
TOC извлечённого CD
Трек | Старт | Длительность | Начальный сектор | Конечный сектор --------------------------------------------------------------------- 1 | 0:00.00 | 5:42.45 | 0 | 25694 2 | 5:42.45 | 4:53.35 | 25695 | 47704 3 | 10:36.05 | 8:57.72 | 47705 | 88051 4 | 19:34.02 | 4:27.50 | 88052 | 108126 5 | 24:01.52 | 4:39.60 | 108127 | 129111 6 | 28:41.37 | 3:04.55 | 129112 | 142966 7 | 31:46.17 | 11:50.45 | 142967 | 196261 8 | 43:36.62 | 14:39.03 | 196262 | 262189
Характеристики диапазона извлечения и сообщения об ошибках
Выбранный диапазон
Имя файла I:\Rip\Lab Report - Terminal (Original Soundtrack) - 1995\Lab Report - Terminal (Original Soundtrack) - 1995.wav
Пиковый уровень 95.5 % Скорость извлечения 3.2 X Качество диапазона 100.0 % CRC теста 4E7F1AAF CRC копии 4E7F1AAF Копирование... OK
Ошибок не произошло
AccurateRip: сводка
Трек 1 : извлечено точно (доверие 6) [E536DBD8] (AR v2)Трек 2 : извлечено точно (доверие 6) [62B9403E] (AR v2)Трек 3 : извлечено точно (доверие 6) [F9D68B5C] (AR v2)Трек 4 : извлечено точно (доверие 6) [80C63137] (AR v2)Трек 5 : извлечено точно (доверие 6) [4D00234C] (AR v2)Трек 6 : извлечено точно (доверие 6) [0DD93748] (AR v2)Трек 7 : извлечено точно (доверие 6) [8DBCE97B] (AR v2)Трек 8 : извлечено точно (доверие 6) [B3488EFA] (AR v2)
Все треки извлечены точно
Конец отчёта
---- CUETools DB Plugin V2.1.6
[CTDB TOCID: p9IfkLiUaIUhaWy4joo4U6QEXG8-] foundSubmit result: p9IfkLiUaIUhaWy4joo4U6QEXG8- has been confirmedTrack | CTDB Status 1 | (8/8) Accurately ripped 2 | (8/8) Accurately ripped 3 | (8/8) Accurately ripped 4 | (7/8) Accurately ripped 5 | (7/8) Accurately ripped 6 | (8/8) Accurately ripped 7 | (7/8) Accurately ripped 8 | (7/8) Accurately ripped
==== Контрольная сумма отчёта BA92C3A8E1191CC00665FFA13FBE3470C9286DC296F007443918AD57ED84B1E9 ====

Содержание индексной карты (.CUE)

REM GENRE IndustrialREM DATE 1995REM DISCID 690DA708REM COMMENT "ExactAudioCopy v1.3"PERFORMER "Lab Report"TITLE "Terminal (Original Soundtrack) - 1995"REM COMPOSER ""FILE "Lab Report - Terminal (Original Soundtrack) - 1995.flac" WAVE TRACK 01 AUDIO TITLE "The Information" PERFORMER "Lab Report" REM COMPOSER "" INDEX 01 00:00:00 TRACK 02 AUDIO TITLE "Becoming Aware" PERFORMER "Lab Report" REM COMPOSER "" INDEX 01 05:42:45 TRACK 03 AUDIO TITLE "The Act" PERFORMER "Lab Report" REM COMPOSER "" INDEX 01 10:36:05 TRACK 04 AUDIO TITLE "Contemplation" PERFORMER "Lab Report" REM COMPOSER "" INDEX 01 19:34:02 TRACK 05 AUDIO TITLE "Clean Up" PERFORMER "Lab Report" REM COMPOSER "" INDEX 01 24:01:52 TRACK 06 AUDIO TITLE "Progression" PERFORMER "Lab Report" REM COMPOSER "" INDEX 01 28:41:37 TRACK 07 AUDIO TITLE "Change of Mind" PERFORMER "Lab Report" REM COMPOSER "" INDEX 01 31:46:17 TRACK 08 AUDIO TITLE "Ascent" PERFORMER "Lab Report" REM COMPOSER "" INDEX 01 43:36:62
Примечание: альбом выпущен на несуществующий фильм.


[geo-torrent.biz]_t_5704976.torrent
Torrent: Registered ·  [ 2019-03-18 00:46 ] ·  aba000d611928e45e10ac70ecbf62be3835bfd68

18 KB

Status: checked
Completed: 0 times
Size: 223 MB
Rating: 
(Votes: 0)
Say thanks: 0  Thanks
Похожие темы
[Profile]    [PM]
Display posts from previous:    
Reply to topic

The time now is: Today 11:42

All times are GMT + 7 Hours



You cannot post new topics in this forum
You cannot reply to topics in this forum
You cannot edit your posts in this forum
You cannot delete your posts in this forum
You cannot vote in polls in this forum
You cannot attach files in this forum
You can download files in this forum