Деррик / Derrick / Сезон: 5 / Серии: 13 из 13 (Теодор Гредлер / Theodor Grädler) [1978, ФРГ, детектив, DVDRip-AVC] Original (Deu) + Rus Sub (rjym3)

Reply to topic
DL-List and Torrent activity [Update пиров]
Size:  345 MB   |    Registered:  7 months 8 days   |    Completed:  0 times

Seeder not seen: Never

 
   
 
 
 
Author Message

Пушистый

Post 06-Mar-2019 09:15

[Quote]

Деррик / Derrick
Год выхода: 1978
Страна: ФРГ
Жанр: детектив
Продолжительность: 00:59:32
Перевод: Субтитры (rjym3)
Режиссёр: Теодор Гредлер / Theodor Grädler
В ролях:
Хорст Тапперт: старший инспектор Деррик
Фриц Веппер: инспектор Кляйн
Вилли Шефер: инспектор Бергер
Петер Диршауэр: учитель Хофер
Ганс Квест: доктор Беккер
Агнес Дюнайсен: дочь доктора Беккера
Михаэль Виттенборн: сын доктора Беккера
Георг Бекхаус: гаишник Росс
Фолкер Экштайн: Буке
Дитлинда Турбан: подруга Буке
Вилфрид Клаус: коллега учителя Хофера
Описание: В общем списке 052 Abitur
Сын известного врача заканчивает среднюю школу. Отец видит в нем наследника и продолжателя своего дела. Но, способности у сына весьма посредственные.
И у сестры выпускника возникает идиотская идея...
В общем, если бы персонажи не говорили по-немецки, могло бы показаться, что события происходят в СССР в "эпоху застоя". Та же истерия, по тому же "жизненно важному" вопросу. Только вместо стандартной советской бесноватой мамы ерундой занимается стервозная старшая сестра.
Доп. информация:
Русские субтитры в полном объеме - rjym3
Переведены с норвежских субтитров, предоставленных ув. Варфаломей09
Четвертый эпизод, показанный по телевидению СССР
11.06.1989 Вторая программа ЦТ. 21:55
Владеющие укр. языком или свободно понимающие его, могут посмотреть сюда:

УКР

укр.звук: http://cloud.mail.ru/public/JBEQ/P6b6tcirF
В районе 24-25 мин укр.перевод отсутствует.Оборван конец (около 1 мин)
Субтитры на эти места: http: http://cloud.mail.ru/public/HkYt/4U5Uv6dAa
Сэмпл: http://multi-up.com/1223330
Качество: DVDRip-AVC
Формат файла: MP4
Видео: AVC, 576х432, 4:3, 675 Kbps, 25.000 fps
Аудио: AAC, 128 Kbps, 44.1 KHz, 2 channels, Front: L R
Субтитры: русские .srt
Реклама:
отсутствует

Список серий

Деррик. Сезон 5 серия 13. В общем списке серия 052. Экзамен (Abitur)

MediaInfo

General
Complete name : F:\Derrik RESERVE\Derrick - 052. Abitur.mp4
Format : MPEG-4
Format profile : Base Media
Codec ID : isom
File size : 345 MiB
Duration : 59mn 32s
Overall bit rate : 809 Kbps
Writing application : Lavf57.83.100
Video
ID : 1
Format : AVC
Format/Info : Advanced Video Codec
Format profile : High@L3.1
Format settings, CABAC : Yes
Format settings, ReFrames : 2 frames
Codec ID : avc1
Codec ID/Info : Advanced Video Coding
Duration : 59mn 32s
Duration_LastFrame : -13ms
Bit rate mode : Variable
Bit rate : 675 Kbps
Width : 576 pixels
Height : 432 pixels
Display aspect ratio : 4:3
Frame rate mode : Constant
Frame rate : 25.000 fps
Color space : YUV
Chroma subsampling : 4:2:0
Bit depth : 8 bits
Scan type : Progressive
Bits/(Pixel*Frame) : 0.109
Stream size : 288 MiB (83%)
Audio
ID : 2
Format : AAC
Format/Info : Advanced Audio Codec
Format profile : LC
Codec ID : 40
Duration : 59mn 32s
Bit rate mode : Constant
Bit rate : 128 Kbps
Channel(s) : 2 channels
Channel positions : Front: L R
Sampling rate : 44.1 KHz
Compression mode : Lossy
Stream size : 54.5 MiB (16%)

Скриншоты

[url=tracker.php?g=foreign_serials&nm=Derrick]Предыдущие и альтернативные раздачи[/url]


[geo-torrent.biz]_t_5689525.torrent
Torrent: Registered ·  [ 2019-03-06 09:13 ] ·  ede3f897e0367e082af0e67cde918b3bedcbe723

14 KB

Status: checked
Completed: 0 times
Size: 345 MB
Rating: 
(Votes: 0)
Say thanks: 0  Thanks
Похожие темы
[Profile]    [PM]
Display posts from previous:    
Reply to topic

The time now is: Today 09:13

All times are GMT + 7 Hours



You cannot post new topics in this forum
You cannot reply to topics in this forum
You cannot edit your posts in this forum
You cannot delete your posts in this forum
You cannot vote in polls in this forum
You cannot attach files in this forum
You can download files in this forum