Деррик / Derrick / Сезон: 14 / Серии: 2 из 11 (Хельмут Эшли / Helmuth Ashley) [1987, ФРГ, детектив, DVDRip] Original (Deu) + Rus Sub (rjym3)

Reply to topic
DL-List and Torrent activity [Update пиров]
Size:  599 MB   |    Registered:  8 months 8 days   |    Completed:  0 times

Seeder not seen: Never

 
   
 
 
 
Author Message

Пушистый

Post 10-Feb-2019 15:04

[Quote]

Деррик / Derrick
Год выхода: 1987
Страна: ФРГ
Жанр: детектив
Продолжительность: 00:58:45
Перевод: Субтитры
Режиссёр: Хельмут Эшли / Helmuth Ashley
В ролях:
Хорст Тапперт: старший инспектор Деррик
Фриц Веппер: инспектор Кляйн
Вилли Шефер: инспектор Бергер
Элизабет Августин: Алина Бредли (дама из Амстердама)
Эрнст Якоби: доктор Зост
Описание: В общем списке серия 149 Die Dame in Amsterdam
И снова вечная тема: седина в бороду - бес в ребро. Плюс к этому: зашкаливающая мания величия. Престарелому полоумному ботану померещилось, что он - великий ученый, а то, что рядом с ним вертится - "женщина мечты". События развернулись непредсказуемо...
Доп. информация:
Русские субтитры в полном объеме - rjym3
Переведены с норвежских субтитров, предоставленных ув. Варфаломей09
DVDRip данной раздачи предоставил ув. Vouka
Первый эпизод, показанный по телевидению СССР
13.10.1987 Первая программа ЦТ. 20:00
Владеющие укр. языком или свободно понимающие его, могут посмотреть сюда:Сэмпл: http://multi-up.com/1221607
Качество: DVDRip
Формат файла: AVI
Видео: XVID,576х432,4:3,1 192 Kbps. 25.000 fps
Аудио: MP3, 224 Kbps, 48.0 KHz, 2 ch
Субтитры: русские .srt
Реклама:
отсутствует

Список серий

Деррик. Сезон 14 серия 2. В общем списке серия 149. Дама из Амстердама

MediaInfo

General
Complete name : F:\Derrick 149\Derrick.E149.Die.Dame.in.Amsterdam.German.FS.DVDRip.XviD-iND.avi
Format : AVI
Format/Info : Audio Video Interleave
File size : 599 MiB
Duration : 58mn 45s
Overall bit rate : 1 426 Kbps
Writing application : FairUse Wizard
Writing library : The best and REALLY easy backup tool
Video
ID : 0
Format : MPEG-4 Visual
Format profile : Advanced Simple@L5
Format settings, BVOP : 2
Format settings, QPel : No
Format settings, GMC : No warppoints
Format settings, Matrix : Default (H.263)
Muxing mode : Packed bitstream
Codec ID : XVID
Codec ID/Hint : XviD
Duration : 58mn 45s
Bit rate : 1 192 Kbps
Width : 576 pixels
Height : 432 pixels
Display aspect ratio : 4:3
Frame rate : 25.000 fps
Color space : YUV
Chroma subsampling : 4:2:0
Bit depth : 8 bits
Scan type : Progressive
Compression mode : Lossy
Bits/(Pixel*Frame) : 0.192
Stream size : 501 MiB (84%)
Writing library : XviD 1.2.0.dev47 (UTC 2006-11-01)
Audio
ID : 1
Format : MPEG Audio
Format version : Version 1
Format profile : Layer 3
Mode : Joint stereo
Mode extension : MS Stereo
Codec ID : 55
Codec ID/Hint : MP3
Duration : 58mn 45s
Bit rate mode : Constant
Bit rate : 224 Kbps
Channel(s) : 2 channels
Sampling rate : 48.0 KHz
Compression mode : Lossy
Stream size : 94.2 MiB (16%)
Alignment : Aligned on interleaves
Interleave, duration : 40 ms (1.00 video frame)
Interleave, preload duration : 504 ms
Writing library : LAME3.97
Encoding settings : -m j -V 4 -q 2 -lowpass 19.4 -b 224

Скриншоты

[url=tracker.php?g=foreign_serials&nm=Derrick]Предыдущие и альтернативные раздачи[/url]


[geo-torrent.biz]_t_5682415.torrent
Torrent: Registered ·  [ 2019-02-10 15:04 ] ·  139874964145fe7dd1445bf372885197a0befd1a

12 KB

Status: checked
Completed: 0 times
Size: 599 MB
Rating: 
(Votes: 0)
Say thanks: 0  Thanks
Похожие темы
[Profile]    [PM]
Display posts from previous:    
Reply to topic

The time now is: Today 06:52

All times are GMT + 7 Hours



You cannot post new topics in this forum
You cannot reply to topics in this forum
You cannot edit your posts in this forum
You cannot delete your posts in this forum
You cannot vote in polls in this forum
You cannot attach files in this forum
You can download files in this forum