(Score) [CD] OCTOPATH TRAVELER Original Soundtrack (Yasunori Nishiki) (Square Enix Music SQEX-10642~5 Japan) - 2018, FLAC (image+.cue), lossless

Reply to topic
DL-List and Torrent activity [Update пиров]
Size:  1.23 GB   |    Registered:  9 months 24 days   |    Completed:  0 times

Seeder not seen: Never

 
   
 
 
 
Author Message

Мых

Post 26-Jan-2019 20:04

[Quote]

OCTOPATH TRAVELER Original Soundtrack
Жанр: Score
Композитор: Yasunori Nishiki
Год выхода диска: 2018
Производитель диска: Japan
Издатель (лейбл): Square Enix Music
Номер по каталогу: SQEX-10642~5
Аудиокодек: FLAC (*.flac)
Тип рипа: image+.cue
Битрейт аудио: lossless
Продолжительность: 03:57:23
Источник: собственный рип
Наличие сканов в содержимом раздачи: нет

Треклист


Disc 1
01. Octopath Traveler -Main Theme- [0:02:34.68]
02. Ophilia, the Cleric [0:03:19.37]
03. Cyrus, the Scholar [0:02:30.34]
04. Tressa, the Merchant [0:02:47.34]
05. Olberic, the Warrior [0:02:42.17]
06. Primrose, the Dancer [0:02:42.23]
07. The Flatlands [0:03:26.64]
08. Alfyn, the Apothecary [0:02:22.20]
09. Therion, the Thief [0:02:55.73]
10. H'aanit, the Hunter [0:04:19.15]
11. The Frostlands [0:03:06.04]
12. The Coastlands [0:03:16.65]
13. The Highlands [0:04:22.45]
14. The Sunlands [0:03:12.18]
15. The Riverlands [0:04:32.11]
16. The Cliftlands [0:03:03.27]
17. The Woodlands [0:03:45.46]
Disc 2
01. Flamesgrace, Guiding Light [0:04:11.19]
02. Melancholy [0:03:14.29]
03. Atlasdam, Seat of Learning [0:03:29.13]
04. Tranquil Days [0:02:55.38]
05. A Sea Breeze Blows [0:03:17.01]
06. How Amusing! [0:03:17.30]
07. Cobbleston, Nestled in the Hills [0:03:13.72]
08. Tension [0:03:17.35]
09. A Brief Respite [0:00:13.69]
10. Dark Caverns [0:03:46.70]
11. Battle I [0:03:18.42]
12. Victory Fanfare [0:00:52.09]
13. Requiem for the Fallen [0:00:25.69]
14. Sunshade, City of Pleasures [0:03:26.42]
15. On a Knife's Edge [0:04:01.42]
16. Clearbrook, by the Pristine Waters [0:03:33.13]
17. Reminiscence [0:03:03.56]
18. A Settlement in the Red Bluffs [0:02:45.69]
19. Discord [0:03:13.35]
20. My Quiet Forest Home [0:03:21.68]
21. Determination [0:02:38.68]
22. Beneath the Surface [0:03:38.63]
23. Creeping Dread [0:03:15.26]
24. Decisive Battle I [0:04:26.41]
Disc 3
01. Battle II [0:02:57.42]
02. Town Veiled in White [0:03:14.64]
03. Gazing Over the Great Plain [0:03:19.69]
04. Enveloped in Kindness [0:03:13.04]
05. Grandport, Center of Commerce [0:03:45.16]
06. Among Stately Peaks [0:04:13.36]
07. Sorrow [0:03:11.59]
08. The Trees Have Eyes [0:04:01.41]
09. Despair [0:03:24.14]
10. Decisive Battle II [0:03:26.10]
11. Oasis in the Sparkling Sands [0:03:37.19]
12. River of Life [0:03:33.08]
13. Bonds of Friendship [0:03:42.05]
14. Orewell, Beneath the Crags [0:02:26.22]
15. Victors Hollow, Jewel of the Forest [0:02:40.65]
16. Jubilation [0:02:53.29]
17. Forbidding Corridors [0:03:41.68]
18. An Ill Omen [0:03:17.54]
Disc 4
01. Battle III [0:03:03.58]
02. They Who Govern Reason [0:04:40.04]
03. Stolen Dreams, Lost Light [0:03:17.09]
04. Pure Evil [0:03:27.24]
05. For Light [0:00:40.07]
06. For Truth [0:00:37.73]
07. For Treasure [0:00:51.08]
08. For Redemption [0:00:43.44]
09. For Revenge [0:00:49.43]
10. For Succor [0:00:55.28]
11. For Freedom [0:00:41.24]
12. For Master [0:00:47.39]
13. Battle at Journey's End [0:04:00.09]
14. The Gate of Finis [0:03:37.17]
15. The One They Call the Witch [0:04:08.29]
16. Moment of Truth [0:00:36.30]
17. Daughter of the Dark God [0:04:45.71]
18. Ending Theme [0:07:59.45]
19. Ophilia Motif [0:00:22.41]
20. Cyrus Motif [0:00:22.52]
21. Tressa Motif [0:00:22.12]
22. Olberic Motif [0:00:24.16]
23. Primrose Motif [0:00:22.30]
24. Alfyn Motif [0:00:22.24]
25. Therion Motif [0:00:21.43]
26. H'aanit Motif [0:00:22.21]

Лог создания рипаDisc 1

Exact Audio Copy V1.3 from 2. September 2016
EAC extraction logfile from 7. January 2019, 19:59
Yasunori Nishiki / OCTOPATH TRAVELER Original Soundtrack
Used drive : MATSHITABD-CMB UJ172 S Adapter: 1 ID: 0
Read mode : SecureUtilize accurate stream : YesDefeat audio cache : YesMake use of C2 pointers : No
Read offset correction : 103Overread into Lead-In and Lead-Out : NoFill up missing offset samples with silence : YesDelete leading and trailing silent blocks : NoNull samples used in CRC calculations : YesUsed interface : Native Win32 interface for Win NT & 2000
Used output format : User Defined EncoderSelected bitrate : 768 kBit/sQuality : HighAdd ID3 tag : NoCommand line compressor : C:\Program Files (x86)\Exact Audio Copy\Flac\flac.exeAdditional command line options : -8 -V -T "Date=%year%" -T "Genre=%genre%" -T "COMMENT=ripped by sewerok®" %source%
TOC of the extracted CD
Track | Start | Length | Start sector | End sector --------------------------------------------------------- 1 | 0:00.00 | 2:34.68 | 0 | 11617 2 | 2:34.68 | 3:19.37 | 11618 | 26579 3 | 5:54.30 | 2:30.34 | 26580 | 37863 4 | 8:24.64 | 2:47.34 | 37864 | 50422 5 | 11:12.23 | 2:42.17 | 50423 | 62589 6 | 13:54.40 | 2:42.23 | 62590 | 74762 7 | 16:36.63 | 3:26.64 | 74763 | 90276 8 | 20:03.52 | 2:22.20 | 90277 | 100946 9 | 22:25.72 | 2:55.73 | 100947 | 114144 10 | 25:21.70 | 4:19.15 | 114145 | 133584 11 | 29:41.10 | 3:06.04 | 133585 | 147538 12 | 32:47.14 | 3:16.65 | 147539 | 162303 13 | 36:04.04 | 4:22.45 | 162304 | 181998 14 | 40:26.49 | 3:12.18 | 181999 | 196416 15 | 43:38.67 | 4:32.11 | 196417 | 216827 16 | 48:11.03 | 3:03.27 | 216828 | 230579 17 | 51:14.30 | 3:45.46 | 230580 | 247500
Range status and errors
Selected range
Filename E:\OCTOPATH TRAVELER Original Soundtrack [2018] (Square Enix Music SQEX-10642-5 Japan)\Disc 1\Yasunori Nishiki - OCTOPATH TRAVELER Original Soundtrack.wav
Peak level 100.0 % Extraction speed 4.3 X Range quality 100.0 % Test CRC 9462C613 Copy CRC 9462C613 Copy OK
No errors occurred
AccurateRip summary
Track 1 accurately ripped (confidence 24) [9FDD5724] (AR v2)Track 2 accurately ripped (confidence 24) [7D53AF4D] (AR v2)Track 3 accurately ripped (confidence 24) [0393125A] (AR v2)Track 4 accurately ripped (confidence 24) [EFCCA116] (AR v2)Track 5 accurately ripped (confidence 24) [6FDCEF54] (AR v2)Track 6 accurately ripped (confidence 24) [C300E983] (AR v2)Track 7 accurately ripped (confidence 24) [2CC102F6] (AR v2)Track 8 accurately ripped (confidence 24) [022E8CC6] (AR v2)Track 9 accurately ripped (confidence 24) [2E8B5961] (AR v2)Track 10 accurately ripped (confidence 24) [F11585B3] (AR v2)Track 11 accurately ripped (confidence 24) [BFA5431F] (AR v2)Track 12 accurately ripped (confidence 24) [350198CB] (AR v2)Track 13 accurately ripped (confidence 24) [32F44A4E] (AR v2)Track 14 accurately ripped (confidence 24) [E6FEA414] (AR v2)Track 15 accurately ripped (confidence 24) [07E66583] (AR v2)Track 16 accurately ripped (confidence 24) [B26A7DDC] (AR v2)Track 17 accurately ripped (confidence 24) [C6FE8023] (AR v2)
All tracks accurately ripped
End of status report
---- CUETools DB Plugin V2.1.6
[CTDB TOCID: 4wjEBd4D9PKynVNL_BLY5YgzO50-] foundSubmit result: 4wjEBd4D9PKynVNL_BLY5YgzO50- has been confirmedTrack | CTDB Status 1 | (239/239) Accurately ripped 2 | (239/239) Accurately ripped 3 | (239/239) Accurately ripped 4 | (239/239) Accurately ripped 5 | (239/239) Accurately ripped 6 | (239/239) Accurately ripped 7 | (239/239) Accurately ripped 8 | (239/239) Accurately ripped 9 | (239/239) Accurately ripped 10 | (239/239) Accurately ripped 11 | (239/239) Accurately ripped 12 | (239/239) Accurately ripped 13 | (238/239) Accurately ripped 14 | (239/239) Accurately ripped 15 | (239/239) Accurately ripped 16 | (239/239) Accurately ripped 17 | (239/239) Accurately ripped
==== Log checksum 6D35E1ADB8E9A29AF8AAFD6F303BF81585999439C18AF4D2BDCA25DA7B9A46C7 ====

Disc 2

Exact Audio Copy V1.3 from 2. September 2016
EAC extraction logfile from 7. January 2019, 20:48
Yasunori Nishiki / OCTOPATH TRAVELER Original Soundtrack
Used drive : MATSHITABD-CMB UJ172 S Adapter: 1 ID: 0
Read mode : SecureUtilize accurate stream : YesDefeat audio cache : YesMake use of C2 pointers : No
Read offset correction : 103Overread into Lead-In and Lead-Out : NoFill up missing offset samples with silence : YesDelete leading and trailing silent blocks : NoNull samples used in CRC calculations : YesUsed interface : Native Win32 interface for Win NT & 2000
Used output format : User Defined EncoderSelected bitrate : 768 kBit/sQuality : HighAdd ID3 tag : NoCommand line compressor : C:\Program Files (x86)\Exact Audio Copy\Flac\flac.exeAdditional command line options : -8 -V -T "Date=%year%" -T "Genre=%genre%" -T "COMMENT=ripped by sewerok®" %source%
TOC of the extracted CD
Track | Start | Length | Start sector | End sector --------------------------------------------------------- 1 | 0:00.00 | 4:11.19 | 0 | 18843 2 | 4:11.19 | 3:14.29 | 18844 | 33422 3 | 7:25.48 | 3:29.13 | 33423 | 49110 4 | 10:54.61 | 2:55.38 | 49111 | 62273 5 | 13:50.24 | 3:17.01 | 62274 | 77049 6 | 17:07.25 | 3:17.30 | 77050 | 91854 7 | 20:24.55 | 3:13.72 | 91855 | 106401 8 | 23:38.52 | 3:17.35 | 106402 | 121211 9 | 26:56.12 | 0:13.69 | 121212 | 122255 10 | 27:10.06 | 3:46.70 | 122256 | 139275 11 | 30:57.01 | 3:18.42 | 139276 | 154167 12 | 34:15.43 | 0:52.09 | 154168 | 158076 13 | 35:07.52 | 0:25.69 | 158077 | 160020 14 | 35:33.46 | 3:26.42 | 160021 | 175512 15 | 39:00.13 | 4:01.42 | 175513 | 193629 16 | 43:01.55 | 3:33.13 | 193630 | 209617 17 | 46:34.68 | 3:03.56 | 209618 | 223398 18 | 49:38.49 | 2:45.69 | 223399 | 235842 19 | 52:24.43 | 3:13.35 | 235843 | 250352 20 | 55:38.03 | 3:21.68 | 250353 | 265495 21 | 58:59.71 | 2:38.68 | 265496 | 277413 22 | 61:38.64 | 3:38.63 | 277414 | 293826 23 | 65:17.52 | 3:15.26 | 293827 | 308477 24 | 68:33.03 | 4:26.41 | 308478 | 328468
Range status and errors
Selected range
Filename E:\OCTOPATH TRAVELER Original Soundtrack [2018] (Square Enix Music SQEX-10642-5 Japan)\Disc 2\Yasunori Nishiki - OCTOPATH TRAVELER Original Soundtrack.wav
Peak level 100.0 % Extraction speed 4.5 X Range quality 100.0 % Test CRC 0A7742AD Copy CRC 0A7742AD Copy OK
No errors occurred
AccurateRip summary
Track 1 accurately ripped (confidence 20) [90ABB2E7] (AR v2)Track 2 accurately ripped (confidence 20) [4FCAFA55] (AR v2)Track 3 accurately ripped (confidence 20) [0BFD4C1C] (AR v2)Track 4 accurately ripped (confidence 20) [B464B787] (AR v2)Track 5 accurately ripped (confidence 20) [F4BA4079] (AR v2)Track 6 accurately ripped (confidence 20) [AABA12BA] (AR v2)Track 7 accurately ripped (confidence 20) [384E4F32] (AR v2)Track 8 accurately ripped (confidence 20) [EF97B2C7] (AR v2)Track 9 accurately ripped (confidence 20) [4C5CF79A] (AR v2)Track 10 accurately ripped (confidence 20) [D15F68BA] (AR v2)Track 11 accurately ripped (confidence 20) [4DDF15D1] (AR v2)Track 12 accurately ripped (confidence 20) [3FE70896] (AR v2)Track 13 accurately ripped (confidence 20) [8F44E22D] (AR v2)Track 14 accurately ripped (confidence 20) [3A3914A9] (AR v2)Track 15 accurately ripped (confidence 20) [EE4BB4CB] (AR v2)Track 16 accurately ripped (confidence 20) [166D9F92] (AR v2)Track 17 accurately ripped (confidence 20) [0BEFE821] (AR v2)Track 18 accurately ripped (confidence 20) [5A00D0F1] (AR v2)Track 19 accurately ripped (confidence 20) [A8EFBECF] (AR v2)Track 20 accurately ripped (confidence 20) [AFA96A0F] (AR v2)Track 21 accurately ripped (confidence 20) [A5DE3A62] (AR v2)Track 22 accurately ripped (confidence 20) [B629A6D9] (AR v2)Track 23 accurately ripped (confidence 20) [258EF028] (AR v2)Track 24 accurately ripped (confidence 20) [A23B3DB2] (AR v2)
All tracks accurately ripped
End of status report
---- CUETools DB Plugin V2.1.6
[CTDB TOCID: kg3ZTVjg1K6NlkaVtruheA9Moso-] foundSubmit result: kg3ZTVjg1K6NlkaVtruheA9Moso- has been confirmedTrack | CTDB Status 1 | (225/225) Accurately ripped 2 | (225/225) Accurately ripped 3 | (225/225) Accurately ripped 4 | (225/225) Accurately ripped 5 | (225/225) Accurately ripped 6 | (225/225) Accurately ripped 7 | (224/225) Accurately ripped 8 | (225/225) Accurately ripped 9 | (225/225) Accurately ripped 10 | (225/225) Accurately ripped 11 | (225/225) Accurately ripped 12 | (225/225) Accurately ripped 13 | (225/225) Accurately ripped 14 | (225/225) Accurately ripped 15 | (225/225) Accurately ripped 16 | (225/225) Accurately ripped 17 | (225/225) Accurately ripped 18 | (225/225) Accurately ripped 19 | (225/225) Accurately ripped 20 | (225/225) Accurately ripped 21 | (225/225) Accurately ripped 22 | (225/225) Accurately ripped 23 | (225/225) Accurately ripped 24 | (224/225) Accurately ripped
==== Log checksum 7A3DBADC294967168CF66A7B2798C9F111217CF7BE173A07B3D3EC8E36EEA762 ====

Disc 3

Exact Audio Copy V1.3 from 2. September 2016
EAC extraction logfile from 7. January 2019, 21:53
Yasunori Nishiki / OCTOPATH TRAVELER Original Soundtrack
Used drive : MATSHITABD-CMB UJ172 S Adapter: 1 ID: 0
Read mode : SecureUtilize accurate stream : YesDefeat audio cache : YesMake use of C2 pointers : No
Read offset correction : 103Overread into Lead-In and Lead-Out : NoFill up missing offset samples with silence : YesDelete leading and trailing silent blocks : NoNull samples used in CRC calculations : YesUsed interface : Native Win32 interface for Win NT & 2000
Used output format : User Defined EncoderSelected bitrate : 768 kBit/sQuality : HighAdd ID3 tag : NoCommand line compressor : C:\Program Files (x86)\Exact Audio Copy\Flac\flac.exeAdditional command line options : -8 -V -T "Date=%year%" -T "Genre=%genre%" -T "COMMENT=ripped by sewerok®" %source%
TOC of the extracted CD
Track | Start | Length | Start sector | End sector --------------------------------------------------------- 1 | 0:00.00 | 2:57.42 | 0 | 13316 2 | 2:57.42 | 3:14.64 | 13317 | 27930 3 | 6:12.31 | 3:19.69 | 27931 | 42924 4 | 9:32.25 | 3:13.04 | 42925 | 57403 5 | 12:45.29 | 3:45.16 | 57404 | 74294 6 | 16:30.45 | 4:13.36 | 74295 | 93305 7 | 20:44.06 | 3:11.59 | 93306 | 107689 8 | 23:55.65 | 4:01.41 | 107690 | 125805 9 | 27:57.31 | 3:24.14 | 125806 | 141119 10 | 31:21.45 | 3:26.10 | 141120 | 156579 11 | 34:47.55 | 3:37.19 | 156580 | 172873 12 | 38:24.74 | 3:33.08 | 172874 | 188856 13 | 41:58.07 | 3:42.05 | 188857 | 205511 14 | 45:40.12 | 2:26.22 | 205512 | 216483 15 | 48:06.34 | 2:40.65 | 216484 | 228548 16 | 50:47.24 | 2:53.29 | 228549 | 241552 17 | 53:40.53 | 3:41.68 | 241553 | 258195 18 | 57:22.46 | 3:17.54 | 258196 | 273024
Range status and errors
Selected range
Filename E:\OCTOPATH TRAVELER Original Soundtrack [2018] (Square Enix Music SQEX-10642-5 Japan)\Disc 3\Yasunori Nishiki - OCTOPATH TRAVELER Original Soundtrack.wav
Peak level 95.7 % Extraction speed 4.4 X Range quality 100.0 % Test CRC C8B5CAD7 Copy CRC C8B5CAD7 Copy OK
No errors occurred
AccurateRip summary
Track 1 accurately ripped (confidence 20) [89CD6134] (AR v2)Track 2 accurately ripped (confidence 20) [A9FCB813] (AR v2)Track 3 accurately ripped (confidence 20) [3FBF5CD9] (AR v2)Track 4 accurately ripped (confidence 20) [01FC3223] (AR v2)Track 5 accurately ripped (confidence 20) [201473F8] (AR v2)Track 6 accurately ripped (confidence 20) [9D77DE81] (AR v2)Track 7 accurately ripped (confidence 20) [4AEF538E] (AR v2)Track 8 accurately ripped (confidence 20) [F39BCE22] (AR v2)Track 9 accurately ripped (confidence 20) [263432E5] (AR v2)Track 10 accurately ripped (confidence 20) [4996AAA6] (AR v2)Track 11 accurately ripped (confidence 20) [E1C894BB] (AR v2)Track 12 accurately ripped (confidence 20) [E4D8CFA3] (AR v2)Track 13 accurately ripped (confidence 20) [7963F47D] (AR v2)Track 14 accurately ripped (confidence 20) [08370E71] (AR v2)Track 15 accurately ripped (confidence 20) [460B6C13] (AR v2)Track 16 accurately ripped (confidence 20) [BC7C2655] (AR v2)Track 17 accurately ripped (confidence 20) [E124ADAF] (AR v2)Track 18 accurately ripped (confidence 20) [E5D506FD] (AR v2)
All tracks accurately ripped
End of status report
---- CUETools DB Plugin V2.1.6
[CTDB TOCID: XJry9XiuV02r6ApogB6_ZQaDQco-] foundSubmit result: XJry9XiuV02r6ApogB6_ZQaDQco- has been confirmedTrack | CTDB Status 1 | (227/228) Accurately ripped 2 | (227/228) Accurately ripped 3 | (227/228) Accurately ripped 4 | (227/228) Accurately ripped 5 | (227/228) Accurately ripped 6 | (227/228) Accurately ripped 7 | (227/228) Accurately ripped 8 | (227/228) Accurately ripped 9 | (227/228) Accurately ripped 10 | (227/228) Accurately ripped 11 | (227/228) Accurately ripped 12 | (227/228) Accurately ripped 13 | (227/228) Accurately ripped 14 | (227/228) Accurately ripped 15 | (227/228) Accurately ripped 16 | (227/228) Accurately ripped 17 | (227/228) Accurately ripped 18 | (227/228) Accurately ripped
==== Log checksum F2EE726CB9464BE913F71C86C67B50C96479BCF3C84E20B234A73C3E54901A53 ====

Disc 4

Exact Audio Copy V1.3 from 2. September 2016
EAC extraction logfile from 7. January 2019, 22:30
Yasunori Nishiki / OCTOPATH TRAVELER Original Soundtrack
Used drive : MATSHITABD-CMB UJ172 S Adapter: 1 ID: 0
Read mode : SecureUtilize accurate stream : YesDefeat audio cache : YesMake use of C2 pointers : No
Read offset correction : 103Overread into Lead-In and Lead-Out : NoFill up missing offset samples with silence : YesDelete leading and trailing silent blocks : NoNull samples used in CRC calculations : YesUsed interface : Native Win32 interface for Win NT & 2000
Used output format : User Defined EncoderSelected bitrate : 768 kBit/sQuality : HighAdd ID3 tag : NoCommand line compressor : C:\Program Files (x86)\Exact Audio Copy\Flac\flac.exeAdditional command line options : -8 -V -T "Date=%year%" -T "Genre=%genre%" -T "COMMENT=ripped by sewerok®" %source%
TOC of the extracted CD
Track | Start | Length | Start sector | End sector --------------------------------------------------------- 1 | 0:00.00 | 3:03.58 | 0 | 13782 2 | 3:03.58 | 4:40.04 | 13783 | 34786 3 | 7:43.62 | 3:17.09 | 34787 | 49570 4 | 11:00.71 | 3:27.24 | 49571 | 65119 5 | 14:28.20 | 0:40.07 | 65120 | 68126 6 | 15:08.27 | 0:37.73 | 68127 | 70974 7 | 15:46.25 | 0:51.08 | 70975 | 74807 8 | 16:37.33 | 0:43.44 | 74808 | 78076 9 | 17:21.02 | 0:49.43 | 78077 | 81794 10 | 18:10.45 | 0:55.28 | 81795 | 85947 11 | 19:05.73 | 0:41.24 | 85948 | 89046 12 | 19:47.22 | 0:47.39 | 89047 | 92610 13 | 20:34.61 | 4:00.09 | 92611 | 110619 14 | 24:34.70 | 3:37.17 | 110620 | 126911 15 | 28:12.12 | 4:08.29 | 126912 | 145540 16 | 32:20.41 | 0:36.30 | 145541 | 148270 17 | 32:56.71 | 4:45.71 | 148271 | 169716 18 | 37:42.67 | 7:59.45 | 169717 | 205686 19 | 45:42.37 | 0:22.41 | 205687 | 207377 20 | 46:05.03 | 0:22.52 | 207378 | 209079 21 | 46:27.55 | 0:22.12 | 209080 | 210741 22 | 46:49.67 | 0:24.16 | 210742 | 212557 23 | 47:14.08 | 0:22.30 | 212558 | 214237 24 | 47:36.38 | 0:22.24 | 214238 | 215911 25 | 47:58.62 | 0:21.43 | 215912 | 217529 26 | 48:20.30 | 0:22.21 | 217530 | 219200
Range status and errors
Selected range
Filename E:\OCTOPATH TRAVELER Original Soundtrack [2018] (Square Enix Music SQEX-10642-5 Japan)\Disc 4\Yasunori Nishiki - OCTOPATH TRAVELER Original Soundtrack.wav
Peak level 100.0 % Extraction speed 4.1 X Range quality 100.0 % Test CRC E7F85871 Copy CRC E7F85871 Copy OK
No errors occurred
AccurateRip summary
Track 1 accurately ripped (confidence 21) [C9FEB232] (AR v2)Track 2 accurately ripped (confidence 21) [4A3FC0CA] (AR v2)Track 3 accurately ripped (confidence 21) [EC4888D5] (AR v2)Track 4 accurately ripped (confidence 21) [EFD939BD] (AR v2)Track 5 accurately ripped (confidence 21) [8EFCCFD6] (AR v2)Track 6 accurately ripped (confidence 21) [525A8985] (AR v2)Track 7 accurately ripped (confidence 21) [2BF8F895] (AR v2)Track 8 accurately ripped (confidence 21) [464F3DAF] (AR v2)Track 9 accurately ripped (confidence 21) [F06AC654] (AR v2)Track 10 accurately ripped (confidence 21) [9058DBE7] (AR v2)Track 11 accurately ripped (confidence 21) [69D6B70C] (AR v2)Track 12 accurately ripped (confidence 21) [1A4BC6E5] (AR v2)Track 13 accurately ripped (confidence 21) [7ECA196E] (AR v2)Track 14 accurately ripped (confidence 21) [A3232C7C] (AR v2)Track 15 accurately ripped (confidence 21) [2AEC113C] (AR v2)Track 16 accurately ripped (confidence 21) [8AB48157] (AR v2)Track 17 accurately ripped (confidence 21) [DF2EB42C] (AR v2)Track 18 accurately ripped (confidence 21) [B76E1ED5] (AR v2)Track 19 accurately ripped (confidence 21) [22A21398] (AR v2)Track 20 accurately ripped (confidence 21) [44A62E51] (AR v2)Track 21 accurately ripped (confidence 21) [7A384B09] (AR v2)Track 22 accurately ripped (confidence 21) [FEE14B6C] (AR v2)Track 23 accurately ripped (confidence 21) [BC348390] (AR v2)Track 24 accurately ripped (confidence 21) [BE8A94CF] (AR v2)Track 25 accurately ripped (confidence 21) [B0EA323F] (AR v2)Track 26 accurately ripped (confidence 21) [4D164636] (AR v2)
All tracks accurately ripped
End of status report
---- CUETools DB Plugin V2.1.6
[CTDB TOCID: shnHXyAPwP1T3D5i6mA7Uaq54fQ-] foundSubmit result: shnHXyAPwP1T3D5i6mA7Uaq54fQ- has been confirmedTrack | CTDB Status 1 | (222/224) Accurately ripped 2 | (224/224) Accurately ripped 3 | (224/224) Accurately ripped 4 | (224/224) Accurately ripped 5 | (224/224) Accurately ripped 6 | (224/224) Accurately ripped 7 | (224/224) Accurately ripped 8 | (224/224) Accurately ripped 9 | (224/224) Accurately ripped 10 | (224/224) Accurately ripped 11 | (224/224) Accurately ripped 12 | (224/224) Accurately ripped 13 | (224/224) Accurately ripped 14 | (224/224) Accurately ripped 15 | (224/224) Accurately ripped 16 | (224/224) Accurately ripped 17 | (224/224) Accurately ripped 18 | (224/224) Accurately ripped 19 | (224/224) Accurately ripped 20 | (224/224) Accurately ripped 21 | (224/224) Accurately ripped 22 | (224/224) Accurately ripped 23 | (224/224) Accurately ripped 24 | (224/224) Accurately ripped 25 | (224/224) Accurately ripped 26 | (224/224) Accurately ripped
==== Log checksum 15F8A895494899DB2554EBD4FAD920CEAEF95364505C10C7A250E2A34C108ADF ====


[geo-torrent.biz]_t_5676777.torrent
Torrent: Registered ·  [ 2019-01-26 20:02 ] ·  ff6c21720fa53754d2f21ed6b223406f05e6ffff

15 KB

Status: checked
Completed: 0 times
Size: 1.23 GB
Rating: 
(Votes: 0)
Say thanks: 0  Thanks
Похожие темы
[Profile]    [PM]
Display posts from previous:    
Reply to topic

The time now is: Today 14:23

All times are GMT + 7 Hours



You cannot post new topics in this forum
You cannot reply to topics in this forum
You cannot edit your posts in this forum
You cannot delete your posts in this forum
You cannot vote in polls in this forum
You cannot attach files in this forum
You can download files in this forum