(Score) WarCraft (World of) Soundtrack Collection (by Russell Brower, Glenn Stafford, Derek Duke, Tracy W. Bush, Jason Hayes, Neal Acree, Sam Cardon, Edo Guidotti, David Arkenstone & VA) (15 CD) - 1996-2018, FLAC (tracks), lossless

Reply to topic
DL-List and Torrent activity [Update пиров]
Size:  5.1 GB   |    Registered:  10 months 15 days   |    Completed:  0 times

Seeder not seen: Never

 
   
 
 
 
Author Message

Мых

Post 05-Jan-2019 14:44

[Quote]

-WarCraft Soundtrack Collection-Жанр: Score | Страна: USA | Год выхода: 1996-2018
Издатель (лейбл): Azeroth Music | Композиторы: Various Artists (см. спойлеры)
Аудиокодек: FLAC (.flac) | Тип рипа: tracks | Битрейт аудио: lossless
Сайт-источник/ник/другое: скачано из сети | Продолжительность: 16:11:51
-

WarCraft II: Tides of Darkness Soundtrack

Композитор: Glenn Stafford
Год выхода диска: 1996
Продолжительность: 00:41:22
Tracklist
01. Human BGM 1 03:38
02. Human BGM 2 03:36
03. Human BGM 3 03:37
04. Human BGM 4 03:42
05. Human BGM 5 03:36
06. Human Briefing 00:58
07. Human Victory 00:37
08. Human Defeat 00:57
09. Orc BGM 1 03:33
10. Orc BGM 2 03:36
11. Orc BGM 3 03:35
12. Orc BGM 4 03:29
13. Orc BGM 5 03:34
14. Orc Briefing 01:27
15. Orc Victory 00:42
16. Orc Defat 00:45

.log

EAC extraction logfile from 22. September 2007, 12:22 for CDBlizzard Entertainment / Warcraft II - Tides Of Darkness
Used drive : PLEXTOR DVDR PX-716A Adapter: 0 ID: 2Read mode : Secure with NO C2, accurate stream, disable cacheRead offset correction : 104Overread into Lead-In and Lead-Out : Yes
Used output format : Internal WAV Routines 44.100 Hz; 16 Bit; Stereo
Other options : Fill up missing offset samples with silence : Yes Delete leading and trailing silent blocks : No Installed external ASPI interface
Track 2 Filename D:\Blizzard Entertainment - Warcraft II - Tides Of Darkness\02 - Human BGM 1.wav
Peak level 99.9 % Track quality 100.0 % Test CRC EA49AA74 Copy CRC EA49AA74 Copy OK
Track 3 Filename D:\Blizzard Entertainment - Warcraft II - Tides Of Darkness\03 - Human BGM 2.wav
Peak level 99.9 % Track quality 100.0 % Test CRC 9CE12E72 Copy CRC 9CE12E72 Copy OK
Track 4 Filename D:\Blizzard Entertainment - Warcraft II - Tides Of Darkness\04 - Human BGM 3.wav
Peak level 99.9 % Track quality 100.0 % Test CRC 2B80A67A Copy CRC 2B80A67A Copy OK
Track 5 Filename D:\Blizzard Entertainment - Warcraft II - Tides Of Darkness\05 - Human BGM 4.wav
Peak level 99.9 % Track quality 100.0 % Test CRC 40BF09B7 Copy CRC 40BF09B7 Copy OK
Track 6 Filename D:\Blizzard Entertainment - Warcraft II - Tides Of Darkness\06 - Human BGM 5.wav
Peak level 99.9 % Track quality 99.9 % Test CRC 6D8F384B Copy CRC 6D8F384B Copy OK
Track 7 Filename D:\Blizzard Entertainment - Warcraft II - Tides Of Darkness\07 - Human Briefing.wav
Peak level 99.9 % Track quality 100.0 % Test CRC 73D9F487 Copy CRC 73D9F487 Copy OK
Track 8 Filename D:\Blizzard Entertainment - Warcraft II - Tides Of Darkness\08 - Human Victory.wav
Peak level 99.9 % Track quality 100.0 % Test CRC 727CA421 Copy CRC 727CA421 Copy OK
Track 9 Filename D:\Blizzard Entertainment - Warcraft II - Tides Of Darkness\09 - Human Defeat.wav
Peak level 99.9 % Track quality 100.0 % Test CRC 876125BB Copy CRC 876125BB Copy OK
Track 10 Filename D:\Blizzard Entertainment - Warcraft II - Tides Of Darkness\10 - Orc BGM 1.wav
Peak level 99.9 % Track quality 100.0 % Test CRC 2F980B23 Copy CRC 2F980B23 Copy OK
Track 11 Filename D:\Blizzard Entertainment - Warcraft II - Tides Of Darkness\11 - Orc BGM 2.wav
Peak level 99.9 % Track quality 100.0 % Test CRC 68C2F817 Copy CRC 68C2F817 Copy OK
Track 12 Filename D:\Blizzard Entertainment - Warcraft II - Tides Of Darkness\12 - Orc BGM 3.wav
Peak level 99.9 % Track quality 100.0 % Test CRC 852EBD7C Copy CRC 852EBD7C Copy OK
Track 13 Filename D:\Blizzard Entertainment - Warcraft II - Tides Of Darkness\13 - Orc BGM 4.wav
Peak level 99.9 % Track quality 100.0 % Test CRC A55CCAF0 Copy CRC A55CCAF0 Copy OK
Track 14 Filename D:\Blizzard Entertainment - Warcraft II - Tides Of Darkness\14 - Orc BGM 5.wav
Peak level 99.9 % Track quality 99.9 % Test CRC E2FB4EFF Copy CRC E2FB4EFF Copy OK
Track 15 Filename D:\Blizzard Entertainment - Warcraft II - Tides Of Darkness\15 - Orc Briefing.wav
Peak level 99.9 % Track quality 100.0 % Test CRC F00E00FE Copy CRC F00E00FE Copy OK
Track 16 Filename D:\Blizzard Entertainment - Warcraft II - Tides Of Darkness\16 - Orc Victory.wav
Peak level 99.9 % Track quality 99.7 % Test CRC 35CA35A3 Copy CRC 35CA35A3 Copy OK
Track 17 Filename D:\Blizzard Entertainment - Warcraft II - Tides Of Darkness\17 - Orc Defeat.wav
Peak level 99.9 % Track quality 100.0 % Test CRC 389F2D03 Copy CRC 389F2D03 Copy OK
No errors occured
End of status report

Warcraft III: Reign of Chaos Soundtrack EP

Композитор: Derek Duke, Tracy W. Bush, Glenn Stafford
Год выхода диска: 2002
Продолжительность: 00:19:27

Tracklist
01. Lordaeron Fall 04:56
02. Bloodlust 05:14
03. Return to Kalimdor 04:13
04. Blight 05:04

.log

Exact Audio Copy V0.99 prebeta 3 from 28. July 2007EAC extraction logfile from 23. November 2007, 13:58Blizzard / Warcraft IIIUsed drive : _NEC DVD_RW ND-3551A Adapter: 1 ID: 0Read mode : SecureUtilize accurate stream : YesDefeat audio cache : YesMake use of C2 pointers : NoRead offset correction : 48Overread into Lead-In and Lead-Out : NoFill up missing offset samples with silence : YesDelete leading and trailing silent blocks : NoNull samples used in CRC calculations : YesUsed interface : Installed external ASPI interfaceGap handling : Appended to previous trackUsed output format : User Defined EncoderSelected bitrate : 320 kBit/sQuality : HighAdd ID3 tag : NoCommand line compressor : C:\Program Files\Exact Audio Copy\flac.exeAdditional command line options : -8 -A tukey(0.25) -A gauss(0.1875) -b 4096 -V -T "artist=%a" -T "title=%t" -T "album=%g" -T "date=%y" -T "tracknumber=%n" -T "genre=%m" %s --sector-alignTOC of the extracted CD Track | Start | Length | Start sector | End sector --------------------------------------------------------- 1 | 0:00.00 | 4:56.04 | 0 | 22203 2 | 4:56.04 | 5:14.35 | 22204 | 45788 3 | 10:10.39 | 4:12.55 | 45789 | 64743 4 | 14:23.19 | 5:04.02 | 64744 | 87545Track 1 Filename D:\Warcraft III Soundtrack\01 - Blizzard - Lordaeron Fall.wav Pre-gap length 0:00:02.00 Peak level 99.4 % Track quality 100.0 % Test CRC 92092D96 Copy CRC 92092D96 Copy OKTrack 2 Filename D:\Warcraft III Soundtrack\02 - Blizzard - Bloodlust.wav Pre-gap length 0:00:02.66 Peak level 98.8 % Track quality 99.9 % Test CRC 99398792 Copy CRC 99398792 Copy OKTrack 3 Filename D:\Warcraft III Soundtrack\03 - Blizzard - Return to Kalimdor.wav Pre-gap length 0:00:00.50 Peak level 88.0 % Track quality 100.0 % Test CRC B73152CD Copy CRC B73152CD Copy OKTrack 4 Filename D:\Warcraft III Soundtrack\04 - Blizzard - Blight.wav Pre-gap length 0:00:02.54 Peak level 96.5 % Track quality 100.0 % Test CRC 04F52481 Copy CRC 04F52481 Copy OKNo errors occurredEnd of status report

Warcraft III: Reign of Chaos Soundtrack

Композиторы: Tracy W. Bush, Derek Duke, Jason Hayes, Glenn Stafford
Год выхода диска: Jan 01, 2002
Продолжительность: 01:13:34

Tracklist
01. Arcane Echoes 05:08
02. Arrival at Kalimdor 04:11
03. Awakening 04:41
04. Blackrock & Roll 04:28
05. Blight 05:05
06. Bloodlust 05:13
07. Carrion Waves 04:52
08. Cinematic Suite 14:47
09. Doomhammer's Legacy 05:15
10. Frostmourne 04:50
11. Lordaeron Fall 03:59
12. Reign Of Chaos 01:08
13. Rise of the Ancients 04:21
14. Temporary Alliances 04:24
15. The Calm 01:12

.log

Exact Audio Copy V0.99 prebeta 4 from 23. January 2008
EAC extraction logfile from 26. April 2008, 3:47
Various / Warcraft III: Reign of Chaos
Used drive : HL-DT-STDVDRAM GSA-4120B Adapter: 0 ID: 0
Read mode : SecureUtilize accurate stream : YesDefeat audio cache : YesMake use of C2 pointers : No
Read offset correction : 667Overread into Lead-In and Lead-Out : NoFill up missing offset samples with silence : YesDelete leading and trailing silent blocks : NoNull samples used in CRC calculations : YesUsed interface : Native Win32 interface for Win NT & 2000Gap handling : Appended to previous track
Used output format : User Defined EncoderSelected bitrate : 192 kBit/sQuality : HighAdd ID3 tag : NoCommand line compressor : E:\MP3 Encoding\flac-1.2.1b-icl\flac.exeAdditional command line options : -V -8 -T "artist=%a" -T "title=%t" -T "album=%g" -T "date=%y" -T "tracknumber=%n" -T "genre=%m" %s
TOC of the extracted CD
Track | Start | Length | Start sector | End sector --------------------------------------------------------- 1 | 0:00.00 | 5:07.70 | 0 | 23094 2 | 5:07.70 | 4:10.47 | 23095 | 41891 3 | 9:18.42 | 4:41.30 | 41892 | 62996 4 | 13:59.72 | 4:27.61 | 62997 | 83082 5 | 18:27.58 | 5:05.05 | 83083 | 105962 6 | 23:32.63 | 5:12.58 | 105963 | 129420 7 | 28:45.46 | 4:52.32 | 129421 | 151352 8 | 33:38.03 | 14:47.17 | 151353 | 217894 9 | 48:25.20 | 5:14.40 | 217895 | 241484 10 | 53:39.60 | 4:49.69 | 241485 | 263228 11 | 58:29.54 | 3:58.68 | 263229 | 281146 12 | 62:28.47 | 1:08.02 | 281147 | 286248 13 | 63:36.49 | 4:21.03 | 286249 | 305826 14 | 67:57.52 | 4:23.69 | 305827 | 325620 15 | 72:21.46 | 1:12.12 | 325621 | 331032
Track 1
Filename C:\2002 - Warcraft III Reign of Chaos\01-Derek_Duke-Arcane_Echoes.wav
Pre-gap length 0:00:02.00
Peak level 96.5 % Track quality 100.0 % Test CRC 1FD01B89 Copy CRC 1FD01B89 Accurately ripped (confidence 7) [97F5CDA2] Copy OK
Track 2
Filename C:\2002 - Warcraft III Reign of Chaos\02-Tracy_W._Bush-Arrival_at_Kalimdor.wav
Pre-gap length 0:00:02.00
Peak level 99.8 % Track quality 100.0 % Test CRC 62BCF3E0 Copy CRC 62BCF3E0 Accurately ripped (confidence 7) [CB386673] Copy OK
Track 3
Filename C:\2002 - Warcraft III Reign of Chaos\03-Tracy_W._Bush-Awakening.wav
Pre-gap length 0:00:01.72
Peak level 99.8 % Track quality 100.0 % Test CRC 9FDE5BD0 Copy CRC 9FDE5BD0 Accurately ripped (confidence 7) [D90AEDD0] Copy OK
Track 4
Filename C:\2002 - Warcraft III Reign of Chaos\04-Glenn_Stafford-Blackrock_&_Roll.wav
Pre-gap length 0:00:01.68
Peak level 98.8 % Track quality 100.0 % Test CRC 757CC45B Copy CRC 757CC45B Accurately ripped (confidence 7) [49626311] Copy OK
Track 5
Filename C:\2002 - Warcraft III Reign of Chaos\05-Derek_Duke-Blight.wav
Pre-gap length 0:00:01.68
Peak level 96.5 % Track quality 100.0 % Test CRC 6739E399 Copy CRC 6739E399 Accurately ripped (confidence 7) [314F28C9] Copy OK
Track 6
Filename C:\2002 - Warcraft III Reign of Chaos\06-Derek_Duke-Bloodlust.wav
Pre-gap length 0:00:01.69
Peak level 98.8 % Track quality 100.0 % Test CRC B97B93C0 Copy CRC B97B93C0 Accurately ripped (confidence 7) [501FE2AE] Copy OK
Track 7
Filename C:\2002 - Warcraft III Reign of Chaos\07-Derek_Duke-Carrion_Waves.wav
Pre-gap length 0:00:01.67
Peak level 96.6 % Track quality 100.0 % Test CRC F3154D4C Copy CRC F3154D4C Accurately ripped (confidence 7) [67A87D92] Copy OK
Track 8
Filename C:\2002 - Warcraft III Reign of Chaos\08-Jason_Hayes-Cinematic_Suite.wav
Pre-gap length 0:00:01.68
Peak level 98.8 % Track quality 100.0 % Test CRC 3B2138F2 Copy CRC 3B2138F2 Accurately ripped (confidence 7) [19549DBE] Copy OK
Track 9
Filename C:\2002 - Warcraft III Reign of Chaos\09-Tracy_W._Bush-Doomhammer's_Legacy.wav
Pre-gap length 0:00:01.68
Peak level 99.0 % Track quality 100.0 % Test CRC 9C7D8453 Copy CRC 9C7D8453 Accurately ripped (confidence 7) [8A9CF19E] Copy OK
Track 10
Filename C:\2002 - Warcraft III Reign of Chaos\10-Glenn_Stafford-Frostmourne.wav
Pre-gap length 0:00:01.68
Peak level 99.8 % Track quality 100.0 % Test CRC 25A3A1D0 Copy CRC 25A3A1D0 Accurately ripped (confidence 7) [ADA313C2] Copy OK
Track 11
Filename C:\2002 - Warcraft III Reign of Chaos\11-Glenn_Stafford-Lordaeron_Fall.wav
Pre-gap length 0:00:01.72
Peak level 99.4 % Track quality 100.0 % Test CRC 97852720 Copy CRC 97852720 Accurately ripped (confidence 7) [36F9B8A3] Copy OK
Track 12
Filename C:\2002 - Warcraft III Reign of Chaos\12-Derek_Duke-Reign_Of_Chaos.wav
Pre-gap length 0:00:02.00
Peak level 96.5 % Track quality 100.0 % Test CRC 3824F2A0 Copy CRC 3824F2A0 Accurately ripped (confidence 7) [3312ACB4] Copy OK
Track 13
Filename C:\2002 - Warcraft III Reign of Chaos\13-Tracy_W._Bush-Rise_of_the_Ancients.wav
Pre-gap length 0:00:01.74
Peak level 99.8 % Track quality 100.0 % Test CRC DF01BED5 Copy CRC DF01BED5 Accurately ripped (confidence 7) [64EE714C] Copy OK
Track 14
Filename C:\2002 - Warcraft III Reign of Chaos\14-Tracy_W._Bush-Temporary_Alliances.wav
Pre-gap length 0:00:01.64
Peak level 99.0 % Track quality 100.0 % Test CRC A458C861 Copy CRC A458C861 Accurately ripped (confidence 7) [77561190] Copy OK
Track 15
Filename C:\2002 - Warcraft III Reign of Chaos\15-Tracy_W._Bush-The_Calm.wav
Pre-gap length 0:00:01.71
Peak level 41.7 % Track quality 100.0 % Test CRC 171C8D16 Copy CRC 171C8D16 Accurately ripped (confidence 7) [E2A4EFC6] Copy OK
All tracks accurately ripped
No errors occurred
End of status report

Warcraft III The Frozen Throne Soundtrack EP

Композиторы: Glenn Stafford, Derek Duke, Tracy W. Bush
Год выхода диска: Jul 01, 2003
Продолжительность: 00:17:26

Tracklist
01. Dark Covenant 04:01
02. Dreadlords' Plight 04:26
03. Return Of The Ancients 04:54
04. Legacy Of Flame 03:57

.log

Exact Audio Copy V0.99 prebeta 3 from 28. July 2007
EAC extraction logfile from 14. September 2009, 12:57
Blizzard / Warcraft III Frozen Throne OST EP
Used drive : PIONEER DVD-RW DVR-107D Adapter: 0 ID: 0
Read mode : SecureUtilize accurate stream : YesDefeat audio cache : YesMake use of C2 pointers : No
Read offset correction : 48Overread into Lead-In and Lead-Out : NoFill up missing offset samples with silence : YesDelete leading and trailing silent blocks : NoNull samples used in CRC calculations : YesUsed interface : Native Win32 interface for Win NT & 2000Gap handling : Appended to previous track
Used output format : User Defined EncoderSelected bitrate : 320 kBit/sQuality : HighAdd ID3 tag : NoCommand line compressor : C:\Program Files (x86)\Exact Audio Copy\FLAC\FLAC.EXEAdditional command line options : -V -8 -T "artist=%a" -T "title=%t" -T "album=%g"-V -8 -T "artist=%a" -T "title=%t" -T "album=%g" -T "date=%y" -T "tracknumber=%n" -T "genre=%m" %s
TOC of the extracted CD
Track | Start | Length | Start sector | End sector --------------------------------------------------------- 1 | 0:00.00 | 4:03.56 | 0 | 18280 2 | 4:03.56 | 4:28.67 | 18281 | 38447 3 | 8:32.48 | 4:55.51 | 38448 | 60623 4 | 13:28.24 | 3:57.37 | 60624 | 78435 5 | 19:57.61 | 1:25.24 | 89836 | 96234
Track 1
Filename C:\Rip\01. Blizzard - Dark Covenant.wav
Pre-gap length 0:00:02.00
Peak level 99.3 % Track quality 99.9 % Test CRC CF21F3DB Copy CRC CF21F3DB Accurately ripped (confidence 1) [853B314A] Copy OK
Track 2
Filename C:\Rip\02. Blizzard - Dreadlord's Plight.wav
Pre-gap length 0:00:01.98
Peak level 96.5 % Track quality 100.0 % Test CRC 0C2D0EDC Copy CRC 0C2D0EDC Accurately ripped (confidence 1) [A468EB9A] Copy OK
Track 3
Filename C:\Rip\03. Blizzard - Return of the Ancients.wav
Pre-gap length 0:00:02.00
Peak level 96.5 % Track quality 100.0 % Test CRC 702F78EF Copy CRC 702F78EF Accurately ripped (confidence 1) [0D032CA5] Copy OK
Track 4
Filename C:\Rip\04. Blizzard - Legacy of Flame.wav
Pre-gap length 0:00:01.96
Peak level 98.8 % Track quality 100.0 % Test CRC 8480B282 Copy CRC 8480B282 Accurately ripped (confidence 1) [0F1D8AD9] Copy OK
All tracks accurately ripped
No errors occurred
End of status report

World of Warcraft Soundtrack

Композиторы: Jason Hayes, Tracy W. Bush, Derek Duke, Glenn Stafford
Год выхода диска: Nov 23, 2004
Продолжительность: 01:16:52

Tracklist
01. Main Title: Legends of Azeroth 02:41
02. Exclusive Track: The Shaping of the World 02:26
03. Exclusive Track: Legacy 02:26
04. Exclusive Track: Song of Elune 02:16
05. Exclusive Track: Echoes of the Past 01:54
06. A Call to Arms 02:19
07. Intro Movie: Seasons of War 02:59
08. Stormwind 02:16
09. Orgrimmar 02:16
10. The Undercity 02:29
11. Thunder Bluff 02:37
12. Darnassus 02:45
13. Ironforge 02:15
14. Elwynn Forest 03:05
15. Duskwood 06:03
16. Dun Morogh 07:31
17. Burning Steppes 02:28
18. Shimmering Flats 04:08
19. Felwood 02:38
20. Stranglethorn Vale 04:14
21. Tanaris 02:32
22. Teldrassil 03:57
23. Tavern 01:15
24. Moonfall 00:50
25. Ruins 01:17
26. Temple 01:05
27. Lurking 01:02
28. Sacred 01:12
29. Graveyard 01:09
30. War 00:49

.log

EAC extraction logfile from 19. March 2007, 17:19 for CDHayes, Jason / World of Warcraft
Used drive : AOPEN CD-RW CRW4852 Adapter: 1 ID: 0Read mode : Secure with NO C2, accurate stream, disable cacheRead offset correction : 97Overread into Lead-In and Lead-Out : No
Used output format : Internal WAV Routines 44.100 Hz; 16 Bit; Stereo
Other options : Fill up missing offset samples with silence : Yes Delete leading and trailing silent blocks : No Native Win32 interface for Win NT & 2000
Range status and errorsSelected range Filename G:\Musik\__HQShare\_Rips\World of Warcraft (Jason Hayes, Tracy W. Bush, Derek Duke, Glenn Stefford) [EAC-log-cue, APE, Cvrs] eChild@HQShare\Hayes, Jason - World of Warcraft.wav
Peak level 100.0 % Range quality 100.0 % CRC EF28A3FE Copy OK
No errors occured
End of status report

World of Warcraft: The Burning Crusade Soundtrack

Композиторы: Russell Brower, Derek Duke, Matt Uelmen
Год выхода диска: Jan 16, 2007
Продолжительность: 01:17:46

Tracklist
01. Main Title: The Burning Legion 03:58
02. Shards of the Exodar 04:38
03. The Sin'dorei 06:39
04. Cinematic Intro: The Dark Portal 02:57
05. Origins 04:23
06. Bloodmyst 04:16
07. Wastelands 04:13
08. Caverns of Time -The Battle of Mount Hyjal- 02:30
09. Azuremyst Isle 02:42
10. Silvermoon City 02:11
11. Netherstorm 04:20
12. Caverns of Time -The Escape from Durnholde- 04:28
13. Outland Suite 02:44
14. The Tower of Karazhan 04:15
15. Illidan 03:10
16. Caverns of Time -Opening of the Dark Portal- 02:38
17. Hellfire 01:59
18. Exclusive Track: The Gates of Ahn'Qiraj 04:00
19. Exclusive Track: Shadow of the Necropolis 04:22
20. Exclusive Track: Taverns 04:26
21. Exclusive Track: Lament of the Highborne 02:57

.log

EAC extraction logfile from 20. March 2007, 19:28 for CDRussell Brower, Derek Duke, Matt Uelmen / World Of Warcraft: The Burning Crusade (OST)
Used drive : AOPEN CD-RW CRW4852 Adapter: 1 ID: 0Read mode : Secure with NO C2, accurate stream, disable cacheRead offset correction : 97Overread into Lead-In and Lead-Out : No
Used output format : Internal WAV Routines 44.100 Hz; 16 Bit; Stereo
Other options : Fill up missing offset samples with silence : Yes Delete leading and trailing silent blocks : No Native Win32 interface for Win NT & 2000
Range status and errorsSelected range Filename G:\Musik\__HQShare\_Rips\World of Warcraft - The burning crusade (Russel Brower, Derek Duke, Matt Uelmen) [EAC-log-cue, APE, Cvrs] eChild@HQShare\CDImage.wav
Peak level 100.0 % Range quality 100.0 % CRC FA8F991E Copy OK
No errors occured
End of status report

World of Warcraft: Taverns of Azeroth Soundtrack

Композиторы: David Arkenstone, Jason Hayes
Год выхода диска: Aug 03, 2007
Продолжительность: 00:50:55

Tracklist
01. Lion's Pride 02:21
02. Stonefire 02:40
03. Pig and Whistle 02:36
04. Gallows' End 02:56
05. Elders' Hearth 02:56
06. Shady Rest 02:49
07. Scarlet Raven 02:48
08. Salty Sailor 02:34
09. Deepwater 02:25
10. Spirit Stone 03:07
11. Bad Juju Bar & Grill 02:36
12. Slaughtered Lamb 02:32
13. Thunderbrew 02:01
14. Hunters' Refuge 02:57
15. Smoke Lodge 02:27
16. Grunts' Place 02:23
17. Tarren Mill 02:13
18. Bloodsail 02:24
19. Temple of the Moon 04:10

.log

Exact Audio Copy V0.99 prebeta 4 from 23. January 2008
EAC extraction logfile from 1. April 2009, 6:52
David Arkenstone / Jason Hayes / World Of Warcraft: Taverns Of Azeroth
Used drive : TSSTcorpDVDR/RW TS-T632L Adapter: 1 ID: 0
Read mode : SecureUtilize accurate stream : YesDefeat audio cache : YesMake use of C2 pointers : No
Read offset correction : 6Overread into Lead-In and Lead-Out : NoFill up missing offset samples with silence : YesDelete leading and trailing silent blocks : NoNull samples used in CRC calculations : YesUsed interface : Native Win32 interface for Win NT & 2000Gap handling : Appended to previous track
Used output format : User Defined EncoderSelected bitrate : 128 kBit/sQuality : HighAdd ID3 tag : NoCommand line compressor : C:\Program Files (x86)\Exact Audio Copy\Flac\flac.exeAdditional command line options : -V -8 -T "artist=%a" -T "title=%t" -T "album=%g" -T "date=%y" -T "tracknumber=%n" -T "genre=%m" %s
TOC of the extracted CD
Track | Start | Length | Start sector | End sector --------------------------------------------------------- 1 | 0:00.00 | 2:21.35 | 0 | 10609 2 | 2:21.35 | 2:40.19 | 10610 | 22628 3 | 5:01.54 | 2:35.43 | 22629 | 34296 4 | 7:37.22 | 2:55.57 | 34297 | 47478 5 | 10:33.04 | 2:55.53 | 47479 | 60656 6 | 13:28.57 | 2:49.27 | 60657 | 73358 7 | 16:18.09 | 2:48.05 | 73359 | 85963 8 | 19:06.14 | 2:33.50 | 85964 | 97488 9 | 21:39.64 | 2:25.07 | 97489 | 108370 10 | 24:04.71 | 3:06.63 | 108371 | 122383 11 | 27:11.59 | 2:35.56 | 122384 | 134064 12 | 29:47.40 | 2:32.17 | 134065 | 145481 13 | 32:19.57 | 2:01.11 | 145482 | 154567 14 | 34:20.68 | 2:57.37 | 154568 | 167879 15 | 37:18.30 | 2:27.25 | 167880 | 178929 16 | 39:45.55 | 2:22.46 | 178930 | 189625 17 | 42:08.26 | 2:12.52 | 189626 | 199577 18 | 44:21.03 | 2:24.35 | 199578 | 210412 19 | 46:45.38 | 4:09.52 | 210413 | 229139
Track 1
Filename E:\Music\David Arkenstone , Jason Hayes - World Of Warcraft- Taverns Of Azeroth\01 - Lion's Pride.wav
Pre-gap length 0:00:02.00
Peak level 98.8 % Track quality 99.9 % Test CRC ACE24138 Copy CRC ACE24138 Track not present in AccurateRip database Copy OK
Track 2
Filename E:\Music\David Arkenstone , Jason Hayes - World Of Warcraft- Taverns Of Azeroth\02 - Stonefire.wav
Peak level 98.8 % Track quality 100.0 % Test CRC CC28D2CC Copy CRC CC28D2CC Track not present in AccurateRip database Copy OK
Track 3
Filename E:\Music\David Arkenstone , Jason Hayes - World Of Warcraft- Taverns Of Azeroth\03 - Pig and Whistle.wav
Peak level 98.8 % Track quality 100.0 % Test CRC 097E7181 Copy CRC 097E7181 Track not present in AccurateRip database Copy OK
Track 4
Filename E:\Music\David Arkenstone , Jason Hayes - World Of Warcraft- Taverns Of Azeroth\04 - Gallows' End.wav
Peak level 81.6 % Track quality 100.0 % Test CRC 457377D8 Copy CRC 457377D8 Track not present in AccurateRip database Copy OK
Track 5
Filename E:\Music\David Arkenstone , Jason Hayes - World Of Warcraft- Taverns Of Azeroth\05 - Elders' Hearth.wav
Peak level 98.8 % Track quality 100.0 % Test CRC D1A828E9 Copy CRC D1A828E9 Track not present in AccurateRip database Copy OK
Track 6
Filename E:\Music\David Arkenstone , Jason Hayes - World Of Warcraft- Taverns Of Azeroth\06 - Shady Rest.wav
Peak level 89.1 % Track quality 99.9 % Test CRC 49EB0CD3 Copy CRC 49EB0CD3 Track not present in AccurateRip database Copy OK
Track 7
Filename E:\Music\David Arkenstone , Jason Hayes - World Of Warcraft- Taverns Of Azeroth\07 - Scarlet Raven.wav
Peak level 98.8 % Track quality 100.0 % Test CRC B5C115D5 Copy CRC B5C115D5 Track not present in AccurateRip database Copy OK
Track 8
Filename E:\Music\David Arkenstone , Jason Hayes - World Of Warcraft- Taverns Of Azeroth\08 - Salty Sailor.wav
Peak level 98.8 % Track quality 100.0 % Test CRC 52E32700 Copy CRC 52E32700 Track not present in AccurateRip database Copy OK
Track 9
Filename E:\Music\David Arkenstone , Jason Hayes - World Of Warcraft- Taverns Of Azeroth\09 - Deepwater.wav
Peak level 98.8 % Track quality 99.9 % Test CRC 8F158599 Copy CRC 8F158599 Track not present in AccurateRip database Copy OK
Track 10
Filename E:\Music\David Arkenstone , Jason Hayes - World Of Warcraft- Taverns Of Azeroth\10 - Spirit Stone.wav
Peak level 98.8 % Track quality 100.0 % Test CRC E2C69AA3 Copy CRC E2C69AA3 Track not present in AccurateRip database Copy OK
Track 11
Filename E:\Music\David Arkenstone , Jason Hayes - World Of Warcraft- Taverns Of Azeroth\11 - Bad Juju Bar & Grill.wav
Peak level 98.8 % Track quality 99.9 % Test CRC 232C45B1 Copy CRC 232C45B1 Track not present in AccurateRip database Copy OK
Track 12
Filename E:\Music\David Arkenstone , Jason Hayes - World Of Warcraft- Taverns Of Azeroth\12 - Slaughtered Lamb.wav
Peak level 98.8 % Track quality 100.0 % Test CRC 8DC37F09 Copy CRC 8DC37F09 Track not present in AccurateRip database Copy OK
Track 13
Filename E:\Music\David Arkenstone , Jason Hayes - World Of Warcraft- Taverns Of Azeroth\13 - Thunderbrew.wav
Peak level 98.8 % Track quality 100.0 % Test CRC 439A8E95 Copy CRC 439A8E95 Track not present in AccurateRip database Copy OK
Track 14
Filename E:\Music\David Arkenstone , Jason Hayes - World Of Warcraft- Taverns Of Azeroth\14 - Hunter's Refuge.wav
Peak level 98.8 % Track quality 100.0 % Test CRC D2A95190 Copy CRC D2A95190 Track not present in AccurateRip database Copy OK
Track 15
Filename E:\Music\David Arkenstone , Jason Hayes - World Of Warcraft- Taverns Of Azeroth\15 - Smoke Lodge.wav
Peak level 98.8 % Track quality 100.0 % Test CRC EA359523 Copy CRC EA359523 Track not present in AccurateRip database Copy OK
Track 16
Filename E:\Music\David Arkenstone , Jason Hayes - World Of Warcraft- Taverns Of Azeroth\16 - Grunt's Place.wav
Peak level 98.8 % Track quality 100.0 % Test CRC 033DB040 Copy CRC 033DB040 Track not present in AccurateRip database Copy OK
Track 17
Filename E:\Music\David Arkenstone , Jason Hayes - World Of Warcraft- Taverns Of Azeroth\17 - Tarren Mill.wav
Peak level 98.8 % Track quality 100.0 % Test CRC 8ECF0161 Copy CRC 8ECF0161 Track not present in AccurateRip database Copy OK
Track 18
Filename E:\Music\David Arkenstone , Jason Hayes - World Of Warcraft- Taverns Of Azeroth\18 - Bloodsail.wav
Peak level 98.8 % Track quality 99.9 % Test CRC 64D3A21F Copy CRC 64D3A21F Track not present in AccurateRip database Copy OK
Track 19
Filename E:\Music\David Arkenstone , Jason Hayes - World Of Warcraft- Taverns Of Azeroth\19 - Temple of the Moon.wav
Peak level 98.8 % Track quality 100.0 % Test CRC 9F687653 Copy CRC 9F687653 Track not present in AccurateRip database Copy OK
None of the tracks are present in the AccurateRip database
No errors occurred
End of status report

World of WarCraft: Wrath of the Lich King Soundtrack

Композиторы: Russell Brower, Derek Duke, Glenn Stafford, Neal Acree
Год выхода диска: Nov 13, 2008
Продолжительность: 01:17:55

Tracklist
01. Main Title: Wrath of the Lich King 08:57
02. Dragons' Rest 03:08
03. Cinematic Intro: Arthas, My Son 03:12
04. Path of Tears 07:16
05. Crystalsong 01:52
06. Dalaran 03:26
07. God Hunters 03:34
08. Forged in Blood 05:34
09. Mountains of Thunder 05:56
10. Exclusive Track: Secrets Long Forgotten 02:29
11. The Kalu'ak 02:24
12. The Eye of Eternity 01:57
13. Garden of Life 03:29
14. The Culling 03:43
15. Howling Fjord 02:59
16. Rise of the Vrykul 01:22
17. Exclusive Track: Borean Tundra 01:58
18. Totems of the Grizzlemaw 05:36
19. Exclusive Track: The Wrath Gate 03:53
20. Angrathar's Shadow 02:56
21. Assault on New Avalon 02:16

.log

Exact Audio Copy V0.99 prebeta 4 from 23. January 2008
Отчёт EAC об извлечении, выполненном 13. ноября 2008, 17:21
Various / World of Warcraft: Wrath of the Lich King Soundtrack
Дисковод: PLEXTOR DVDR PX-755A Adapter: 1 ID: 0
Режим чтения : ДостоверностьИспользование точного потока : ДаОтключение кэша аудио : ДаИспользование указателей C2 : Нет
Коррекция смещения при чтении : 30Способность читать области Lead-in и Lead-out : НетЗаполнение пропущенных сэмплов тишиной : ДаУдаление блоков с тишиной в начале и конце : НетПри вычислениях CRC использовались нулевые сэмплы : ДаИнтерфейс : Встроенный Win32-интерфейс для Win NT/2000
Выходной формат : Внутренние WAV-операцииФормат файла сэмплов : 44.100 Гц; 16 бит; стерео
TOC извлечённого CD
Трек | Старт | Длительность | Начальный сектор | Конечный сектор --------------------------------------------------------------------- 1 | 0:00.00 | 8:56.49 | 0 | 40248 2 | 8:56.49 | 3:07.40 | 40249 | 54313 3 | 12:04.14 | 3:12.28 | 54314 | 68741 4 | 15:16.42 | 7:15.38 | 68742 | 101404 5 | 22:32.05 | 1:51.71 | 101405 | 109800 6 | 24:24.01 | 3:26.01 | 109801 | 125251 7 | 27:50.02 | 3:34.08 | 125252 | 141309 8 | 31:24.10 | 5:34.32 | 141310 | 166391 9 | 36:58.42 | 5:55.46 | 166392 | 193062 10 | 42:54.13 | 2:28.58 | 193063 | 204220 11 | 45:22.71 | 2:23.66 | 204221 | 215011 12 | 47:46.62 | 1:56.60 | 215012 | 223771 13 | 49:43.47 | 3:28.66 | 223772 | 239437 14 | 53:12.38 | 3:42.39 | 239438 | 256126 15 | 56:55.02 | 2:59.09 | 256127 | 269560 16 | 59:54.11 | 1:22.10 | 269561 | 275720 17 | 61:16.21 | 1:58.11 | 275721 | 284581 18 | 63:14.32 | 5:36.27 | 284582 | 309808 19 | 68:50.59 | 3:53.14 | 309809 | 327297 20 | 72:43.73 | 2:55.51 | 327298 | 340473 21 | 75:39.49 | 2:15.55 | 340474 | 350653
Характеристики диапазона извлечения и сообщения об ошибках
Выбранный диапазон
Имя файла C:\Users\DimaSh\Desktop\WoW - WOTLK\Various - World of Warcraft Wrath of the Lich King Soundtrack.wav
Пиковый уровень 98.8 % Качество диапазона 100.0 % CRC копии DA970CEA Копирование... OK
Ошибок не произошло
Конец отчёта

World of WarCraft: Mosaic Soundtrack

Композиторы: Russell Brower, Matt Uelmen, Derek Duke, Glenn Stafford, David Arkenstone, Edo Guidotti
Год выхода диска: Aug 22, 2009
Продолжительность: 01:17:56

Tracklist
01. To the Ends of the Earth 02:45
02. Honor Hold 02:14
03. Black Temple 09:15
04. Mag'har 02:54
05. Fury of the Sunwell 07:59
06. Tempest Keep 03:08
07. Winter's Grasp 02:27
08. Karazhan 06:29
09. The Gods of Zul'Aman 03:46
10. The Sundered Shard 04:30
11. Ironforge 04:26
12. Secrets of Ulduar 11:35
13. Signs and Mysteries 01:02
14. Sapphiron 00:48
15. Call of the Crusade 11:38
16. Brewfest! 03:00

.log

Exact Audio Copy V0.99 prebeta 4 from 23. January 2008
EAC extraction logfile from 1. September 2009, 22:12
World of Warcraft / Mosaic
Used drive : MATSHITABD-CMB UJ-120 Adapter: 1 ID: 0
Read mode : SecureUtilize accurate stream : YesDefeat audio cache : YesMake use of C2 pointers : No
Read offset correction : 102Overread into Lead-In and Lead-Out : NoFill up missing offset samples with silence : YesDelete leading and trailing silent blocks : NoNull samples used in CRC calculations : YesUsed interface : Native Win32 interface for Win NT & 2000Gap handling : Appended to previous track
Used output format : User Defined EncoderSelected bitrate : 1024 kBit/sQuality : HighAdd ID3 tag : NoCommand line compressor : C:\Program Files (x86)\FLAC\flac.exeAdditional command line options : -6 -V -T "artist=%a" -T "title=%t" -T "album=%g" -T "date=%y" -T "tracknumber=%n" -T "genre=%m" %s %d
TOC of the extracted CD
Track | Start | Length | Start sector | End sector --------------------------------------------------------- 1 | 0:00.00 | 2:45.37 | 0 | 12411 2 | 2:45.37 | 2:14.20 | 12412 | 22481 3 | 4:59.57 | 9:15.04 | 22482 | 64110 4 | 14:14.61 | 2:53.66 | 64111 | 77151 5 | 17:08.52 | 7:59.00 | 77152 | 113076 6 | 25:07.52 | 3:08.34 | 113077 | 127210 7 | 28:16.11 | 2:26.72 | 127211 | 138232 8 | 30:43.08 | 6:29.09 | 138233 | 167416 9 | 37:12.17 | 3:46.26 | 167417 | 184392 10 | 40:58.43 | 4:29.49 | 184393 | 204616 11 | 45:28.17 | 4:25.67 | 204617 | 224558 12 | 49:54.09 | 11:35.25 | 224559 | 276708 13 | 61:29.34 | 1:01.38 | 276709 | 281321 14 | 62:30.72 | 0:48.28 | 281322 | 284949 15 | 63:19.25 | 11:38.00 | 284950 | 337299 16 | 74:57.25 | 2:59.50 | 337300 | 350774
Track 1
Filename D:\CD Rips\World of Warcraft\Mosaic\01 - To The End of the Earth.wav
Pre-gap length 0:00:02.00
Peak level 98.4 % Track quality 100.0 % Test CRC 5CBB61F5 Copy CRC 5CBB61F5 Copy OK
Track 2
Filename D:\CD Rips\World of Warcraft\Mosaic\02 - Honor Hold.wav
Peak level 98.4 % Track quality 100.0 % Test CRC A291CF4F Copy CRC A291CF4F Copy OK
Track 3
Filename D:\CD Rips\World of Warcraft\Mosaic\03 - Black Temple.wav
Peak level 98.4 % Track quality 100.0 % Test CRC F2F27110 Copy CRC F2F27110 Copy OK
Track 4
Filename D:\CD Rips\World of Warcraft\Mosaic\04 - Mag'har.wav
Peak level 98.4 % Track quality 100.0 % Test CRC 0C243B38 Copy CRC 0C243B38 Copy OK
Track 5
Filename D:\CD Rips\World of Warcraft\Mosaic\05 - Fury of the Sunwell.wav
Peak level 98.4 % Track quality 100.0 % Test CRC EF7AEEDB Copy CRC EF7AEEDB Copy OK
Track 6
Filename D:\CD Rips\World of Warcraft\Mosaic\06 - Tempest Keep.wav
Peak level 98.4 % Track quality 100.0 % Test CRC FDE61BE3 Copy CRC FDE61BE3 Copy OK
Track 7
Filename D:\CD Rips\World of Warcraft\Mosaic\07 - Winter's Grasp.wav
Peak level 98.4 % Track quality 100.0 % Test CRC 9CE07800 Copy CRC 9CE07800 Copy OK
Track 8
Filename D:\CD Rips\World of Warcraft\Mosaic\08 - Karazhan.wav
Peak level 98.4 % Track quality 100.0 % Test CRC 09C9878D Copy CRC 09C9878D Copy OK
Track 9
Filename D:\CD Rips\World of Warcraft\Mosaic\09 - The Gods of Zul'Aman.wav
Peak level 98.4 % Track quality 100.0 % Test CRC DCA9828A Copy CRC DCA9828A Copy OK
Track 10
Filename D:\CD Rips\World of Warcraft\Mosaic\10 - The Sundered Shard.wav
Peak level 84.0 % Track quality 99.9 % Test CRC A00C75A3 Copy CRC A00C75A3 Copy OK
Track 11
Filename D:\CD Rips\World of Warcraft\Mosaic\11 - Ironforge.wav
Peak level 98.4 % Track quality 100.0 % Test CRC 8766688D Copy CRC 8766688D Copy OK
Track 12
Filename D:\CD Rips\World of Warcraft\Mosaic\12 - Secrets of Ulduar.wav
Peak level 98.4 % Track quality 99.9 % Test CRC 8D51B428 Copy CRC 8D51B428 Copy OK
Track 13
Filename D:\CD Rips\World of Warcraft\Mosaic\13 - Signs and Mysteries.wav
Peak level 95.0 % Track quality 100.0 % Test CRC C1C50D84 Copy CRC C1C50D84 Copy OK
Track 14
Filename D:\CD Rips\World of Warcraft\Mosaic\14 - Sapphiron.wav
Peak level 98.4 % Track quality 100.0 % Test CRC F844E992 Copy CRC F844E992 Copy OK
Track 15
Filename D:\CD Rips\World of Warcraft\Mosaic\15 - Call of the Crusade.wav
Peak level 98.4 % Track quality 99.9 % Test CRC 9A2FBA38 Copy CRC 9A2FBA38 Copy OK
Track 16
Filename D:\CD Rips\World of Warcraft\Mosaic\16 - Brewfest!.wav
Peak level 98.4 % Track quality 99.9 % Test CRC 9D9BCE54 Copy CRC 9D9BCE54 Copy OK
No errors occurred
End of status report

World of Warcraft: Wrath of the Lich King - Fall of the Lich King Soundtrack

Композитор: Russell Brower, Derek Duke, Edo Guidotti
Год выхода диска: Oct 22, 2010
Продолжительность: 00:36:14

Tracklist
01. Citadel 03:25
02. Light's Hammer 02:39
03. Halls of Reflection 03:47
04. Crimson Hall 04:27
05. Forge of Souls and the Bronze Jam 02:33
06. The Chase 04:14
07. Ice Fortress 06:02
08. Sindragosa 02:25
09. Stand Down 02:08
10. Gunships 01:14
11. Invincible 03:17

.log

Exact Audio Copy V0.99 prebeta 5 from 4. May 2009
EAC extraction logfile from 18. November 2010, 20:03
World of Warcraft: Wrath of the Lich King / Fall of the Lich King (FLAC)
Used drive : MATSHITABD-CMB UJ-120 Adapter: 0 ID: 0
Read mode : SecureUtilize accurate stream : YesDefeat audio cache : YesMake use of C2 pointers : No
Read offset correction : 102Overread into Lead-In and Lead-Out : NoFill up missing offset samples with silence : YesDelete leading and trailing silent blocks : NoNull samples used in CRC calculations : YesUsed interface : Native Win32 interface for Win NT & 2000Gap handling : Appended to previous track
Used output format : User Defined EncoderSelected bitrate : 320 kBit/sQuality : HighAdd ID3 tag : NoCommand line compressor : C:\Program Files (x86)\Exact Audio Copy\Flac\flac.exeAdditional command line options : -V -8 -T "artist=%a" -T "title=%t" -T "album=%g" -T "date=%y" -T "tracknumber=%n" -T "genre=%m" %s
TOC of the extracted CD
Track | Start | Length | Start sector | End sector --------------------------------------------------------- 1 | 0:00.00 | 3:25.30 | 0 | 15404 2 | 3:25.30 | 2:39.55 | 15405 | 27384 3 | 6:05.10 | 3:47.39 | 27385 | 44448 4 | 9:52.49 | 4:27.30 | 44449 | 64503 5 | 14:20.04 | 2:33.49 | 64504 | 76027 6 | 16:53.53 | 4:15.06 | 76028 | 95158 7 | 21:08.59 | 6:02.73 | 95159 | 122381 8 | 27:11.57 | 2:25.15 | 122382 | 133271 9 | 29:36.72 | 2:08.24 | 133272 | 142895 10 | 31:45.21 | 1:14.09 | 142896 | 148454 11 | 32:59.30 | 3:17.29 | 148455 | 163258
Track 1
Filename C:\EACRips\World of Warcraft- Wrath of the Lich King - 2010 - Fall of the Lich King (FLAC)\01 - Citadel.wav
Pre-gap length 0:00:02.00
Peak level 98.8 % Track quality 100.0 % Test CRC 94A1C3AD Copy CRC 94A1C3AD Track not present in AccurateRip database Copy OK
Track 2
Filename C:\EACRips\World of Warcraft- Wrath of the Lich King - 2010 - Fall of the Lich King (FLAC)\02 - Light's Hammer.wav
Peak level 98.8 % Track quality 99.9 % Test CRC 7DD08BB5 Copy CRC 7DD08BB5 Track not present in AccurateRip database Copy OK
Track 3
Filename C:\EACRips\World of Warcraft- Wrath of the Lich King - 2010 - Fall of the Lich King (FLAC)\03 - Halls of Reflection.wav
Peak level 98.8 % Track quality 100.0 % Test CRC 702EE443 Copy CRC 702EE443 Track not present in AccurateRip database Copy OK
Track 4
Filename C:\EACRips\World of Warcraft- Wrath of the Lich King - 2010 - Fall of the Lich King (FLAC)\04 - Crimson Hall.wav
Peak level 98.8 % Track quality 100.0 % Test CRC 40B004B0 Copy CRC 40B004B0 Track not present in AccurateRip database Copy OK
Track 5
Filename C:\EACRips\World of Warcraft- Wrath of the Lich King - 2010 - Fall of the Lich King (FLAC)\05 - Forge of Souls and the Bronze Jam.wav
Peak level 98.8 % Track quality 100.0 % Test CRC 263918B8 Copy CRC 263918B8 Track not present in AccurateRip database Copy OK
Track 6
Filename C:\EACRips\World of Warcraft- Wrath of the Lich King - 2010 - Fall of the Lich King (FLAC)\06 - The Chase.wav
Peak level 98.8 % Track quality 100.0 % Test CRC 704FF2AD Copy CRC 704FF2AD Track not present in AccurateRip database Copy OK
Track 7
Filename C:\EACRips\World of Warcraft- Wrath of the Lich King - 2010 - Fall of the Lich King (FLAC)\07 - Ice Fortress.wav
Peak level 98.8 % Track quality 99.9 % Test CRC 65C72BFE Copy CRC 65C72BFE Track not present in AccurateRip database Copy OK
Track 8
Filename C:\EACRips\World of Warcraft- Wrath of the Lich King - 2010 - Fall of the Lich King (FLAC)\08 - Sindragosa.wav
Peak level 98.8 % Track quality 100.0 % Test CRC F80B3E14 Copy CRC F80B3E14 Track not present in AccurateRip database Copy OK
Track 9
Filename C:\EACRips\World of Warcraft- Wrath of the Lich King - 2010 - Fall of the Lich King (FLAC)\09 - Stand Down.wav
Peak level 98.8 % Track quality 100.0 % Test CRC D554B1D2 Copy CRC D554B1D2 Track not present in AccurateRip database Copy OK
Track 10
Filename C:\EACRips\World of Warcraft- Wrath of the Lich King - 2010 - Fall of the Lich King (FLAC)\10 - Gunships.wav
Peak level 98.8 % Track quality 99.8 % Test CRC 0D0149F3 Copy CRC 0D0149F3 Track not present in AccurateRip database Copy OK
Track 11
Filename C:\EACRips\World of Warcraft- Wrath of the Lich King - 2010 - Fall of the Lich King (FLAC)\11 - Invincible.wav
Peak level 98.8 % Track quality 100.0 % Test CRC 8836D65F Copy CRC 8836D65F Track not present in AccurateRip database Copy OK
None of the tracks are present in the AccurateRip database
No errors occurred
End of status report

World of WarCraft: Cataclysm Soundtrack

Композиторы: Russell Brower, Derek Duke, Glenn Stafford, David Arkenstone, Neal Acree, Jason Hayes
Год выхода диска: Dec 07, 2010
Продолжительность: 01:17:49

Tracklist
01. The Shattering 12:04
02. Xaxas 02:16
03. Tempest's Wake 03:12
04. Depths of Vashj'ir 03:41
05. Castaways 04:02
06. Reforged 08:39
07. Restoring the Balance 03:04
08. Curse of the Worgen 03:25
09. Defenders of Azeroth 08:35
10. Eventide 02:31
11. Thaurissan's Reach 02:30
12. Uldum 05:19
13. Breath of Al'Akir 02:36
14. Call of the Elements 02:46
15. Guardians of Nordrassil 06:45
16. Dominion of the Stonemother 03:46
17. Nightsong 02:38

.log

Exact Audio Copy V0.99 prebeta 5 from 4. May 2009
EAC extraction logfile from 3. December 2010, 11:43
Russell Brower, Derek Duke, Neal Acree, David Arkenstone, Glenn Stafford / World of Warcraft: Cataclysm Soundtrack
Used drive : ASUS DRW-20B1LT Adapter: 0 ID: 0
Read mode : SecureUtilize accurate stream : YesDefeat audio cache : YesMake use of C2 pointers : No
Read offset correction : 6Overread into Lead-In and Lead-Out : NoFill up missing offset samples with silence : YesDelete leading and trailing silent blocks : NoNull samples used in CRC calculations : YesUsed interface : Native Win32 interface for Win NT & 2000Gap handling : Appended to previous track
Used output format : User Defined EncoderSelected bitrate : 320 kBit/sQuality : HighAdd ID3 tag : NoCommand line compressor : C:\Program Files\Exact Audio Copy\FLAC\FLAC.EXEAdditional command line options : -8 -T "artist=%a" -T "title=%t" -T "album=%g" -T "date=%y" -T "tracknumber=%n" -T "genre=%m" %s -V
TOC of the extracted CD
Track | Start | Length | Start sector | End sector --------------------------------------------------------- 1 | 0:00.00 | 12:04.61 | 0 | 54360 2 | 12:04.61 | 2:16.07 | 54361 | 64567 3 | 14:20.68 | 3:12.54 | 64568 | 79021 4 | 17:33.47 | 3:41.46 | 79022 | 95642 5 | 21:15.18 | 4:02.66 | 95643 | 113858 6 | 25:18.09 | 8:39.16 | 113859 | 152799 7 | 33:57.25 | 3:04.01 | 152800 | 166600 8 | 37:01.26 | 3:25.74 | 166601 | 182049 9 | 40:27.25 | 8:35.19 | 182050 | 220693 10 | 49:02.44 | 2:31.11 | 220694 | 232029 11 | 51:33.55 | 2:30.46 | 232030 | 243325 12 | 54:04.26 | 5:19.69 | 243326 | 267319 13 | 59:24.20 | 2:36.71 | 267320 | 279090 14 | 62:01.16 | 2:46.07 | 279091 | 291547 15 | 64:47.23 | 6:45.22 | 291548 | 321944 16 | 71:32.45 | 3:46.44 | 321945 | 338938 17 | 75:19.14 | 2:38.26 | 338939 | 350814
Track 1
Filename F:\Video Game Ripping\Completed Rips\[OST] World of Warcraft - Cataclysm Soundtrack\01. Russell Brower, Derek Duke, Neal Acree, David Arkenstone, Glenn Stafford - The Shattering.wav
Pre-gap length 0:00:02.00
Peak level 100.0 % Track quality 100.0 % Test CRC 73101159 Copy CRC 73101159 Copy OK
Track 2
Filename F:\Video Game Ripping\Completed Rips\[OST] World of Warcraft - Cataclysm Soundtrack\02. Russell Brower, Derek Duke, Neal Acree, David Arkenstone, Glenn Stafford - Xaxas.wav
Peak level 100.0 % Track quality 100.0 % Test CRC 2FFCA1EF Copy CRC 2FFCA1EF Copy OK
Track 3
Filename F:\Video Game Ripping\Completed Rips\[OST] World of Warcraft - Cataclysm Soundtrack\03. Russell Brower, Derek Duke, Neal Acree, David Arkenstone, Glenn Stafford - Tempest's Wake.wav
Peak level 98.8 % Track quality 100.0 % Test CRC 18ACB989 Copy CRC 18ACB989 Copy OK
Track 4
Filename F:\Video Game Ripping\Completed Rips\[OST] World of Warcraft - Cataclysm Soundtrack\04. Russell Brower, Derek Duke, Neal Acree, David Arkenstone, Glenn Stafford - Depths of Vashj'ir.wav
Peak level 98.8 % Track quality 100.0 % Test CRC F72C4E62 Copy CRC F72C4E62 Copy OK
Track 5
Filename F:\Video Game Ripping\Completed Rips\[OST] World of Warcraft - Cataclysm Soundtrack\05. Russell Brower, Derek Duke, Neal Acree, David Arkenstone, Glenn Stafford - Castaways.wav
Peak level 98.8 % Track quality 100.0 % Test CRC EB750104 Copy CRC EB750104 Copy OK
Track 6
Filename F:\Video Game Ripping\Completed Rips\[OST] World of Warcraft - Cataclysm Soundtrack\06. Russell Brower, Derek Duke, Neal Acree, David Arkenstone, Glenn Stafford - Reforged.wav
Peak level 98.8 % Track quality 100.0 % Test CRC 1563ED46 Copy CRC 1563ED46 Copy OK
Track 7
Filename F:\Video Game Ripping\Completed Rips\[OST] World of Warcraft - Cataclysm Soundtrack\07. Russell Brower, Derek Duke, Neal Acree, David Arkenstone, Glenn Stafford - Restoring the Balance.wav
Peak level 98.8 % Track quality 100.0 % Test CRC 32119D6A Copy CRC 32119D6A Copy OK
Track 8
Filename F:\Video Game Ripping\Completed Rips\[OST] World of Warcraft - Cataclysm Soundtrack\08. Russell Brower, Derek Duke, Neal Acree, David Arkenstone, Glenn Stafford - Curse of the Worgen.wav
Peak level 98.8 % Track quality 100.0 % Test CRC F358C1D3 Copy CRC F358C1D3 Copy OK
Track 9
Filename F:\Video Game Ripping\Completed Rips\[OST] World of Warcraft - Cataclysm Soundtrack\09. Russell Brower, Derek Duke, Neal Acree, David Arkenstone, Glenn Stafford - Defenders of Azeroth.wav
Peak level 98.8 % Track quality 100.0 % Test CRC C6A034D9 Copy CRC C6A034D9 Copy OK
Track 10
Filename F:\Video Game Ripping\Completed Rips\[OST] World of Warcraft - Cataclysm Soundtrack\10. Russell Brower, Derek Duke, Neal Acree, David Arkenstone, Glenn Stafford - Eventide.wav
Peak level 98.8 % Track quality 100.0 % Test CRC A732D71D Copy CRC A732D71D Copy OK
Track 11
Filename F:\Video Game Ripping\Completed Rips\[OST] World of Warcraft - Cataclysm Soundtrack\11. Russell Brower, Derek Duke, Neal Acree, David Arkenstone, Glenn Stafford - Thaurissan's Reach.wav
Peak level 98.8 % Track quality 100.0 % Test CRC D104BCFF Copy CRC D104BCFF Copy OK
Track 12
Filename F:\Video Game Ripping\Completed Rips\[OST] World of Warcraft - Cataclysm Soundtrack\12. Russell Brower, Derek Duke, Neal Acree, David Arkenstone, Glenn Stafford - Uldum.wav
Peak level 98.8 % Track quality 100.0 % Test CRC D7251CF2 Copy CRC D7251CF2 Copy OK
Track 13
Filename F:\Video Game Ripping\Completed Rips\[OST] World of Warcraft - Cataclysm Soundtrack\13. Russell Brower, Derek Duke, Neal Acree, David Arkenstone, Glenn Stafford - Breath of Al'Akir.wav
Peak level 98.8 % Track quality 100.0 % Test CRC 82C8BE71 Copy CRC 82C8BE71 Copy OK
Track 14
Filename F:\Video Game Ripping\Completed Rips\[OST] World of Warcraft - Cataclysm Soundtrack\14. Russell Brower, Derek Duke, Neal Acree, David Arkenstone, Glenn Stafford - Call of the Elements.wav
Peak level 98.8 % Track quality 100.0 % Test CRC 192E0639 Copy CRC 192E0639 Copy OK
Track 15
Filename F:\Video Game Ripping\Completed Rips\[OST] World of Warcraft - Cataclysm Soundtrack\15. Russell Brower, Derek Duke, Neal Acree, David Arkenstone, Glenn Stafford - Guardians of Nordrassil.wav
Peak level 98.8 % Track quality 100.0 % Test CRC 1AC8C636 Copy CRC 1AC8C636 Copy OK
Track 16
Filename F:\Video Game Ripping\Completed Rips\[OST] World of Warcraft - Cataclysm Soundtrack\16. Russell Brower, Derek Duke, Neal Acree, David Arkenstone, Glenn Stafford - Dominion of the Stonemother.wav
Peak level 98.8 % Track quality 100.0 % Test CRC 1DFF791F Copy CRC 1DFF791F Copy OK
Track 17
Filename F:\Video Game Ripping\Completed Rips\[OST] World of Warcraft - Cataclysm Soundtrack\17. Russell Brower, Derek Duke, Neal Acree, David Arkenstone, Glenn Stafford - Nightsong.wav
Peak level 98.8 % Track quality 100.0 % Test CRC 7D8AAF41 Copy CRC 7D8AAF41 Copy OK
No errors occurred
End of status report
-


[geo-torrent.biz]_t_5311945.torrent
Torrent: Registered ·  [ 2019-01-05 13:55 ] ·  fc75377cc265822567f967ce40f5eebd4fe39437

51 KB

Status: checked
Completed: 0 times
Size: 5.1 GB
Rating: 
(Votes: 0)
Say thanks: 0  Thanks
Похожие темы
[Profile]    [PM]
Display posts from previous:    
Reply to topic

The time now is: Today 14:24

All times are GMT + 7 Hours



You cannot post new topics in this forum
You cannot reply to topics in this forum
You cannot edit your posts in this forum
You cannot delete your posts in this forum
You cannot vote in polls in this forum
You cannot attach files in this forum
You can download files in this forum