(Electronic, Classical) [CD] Ann Southam - Seastill: The Electroacoustic World Of Ann Southam - 1999, FLAC (tracks+.cue), lossless

Ответить на тему
Статистика раздачи [Обновить пиров]
Размер:  308 MB   |    Зарегистрирован:  1 месяц 4 дня   |    Скачан:  0 раз

Полного источника не было: Никогда

 
   
 
 
 
Автор Сообщение

torrentc.info

Создавать темы 14-Ноя-2018 22:04

[Цитировать]

Ann Southam / Seastill: The Electroacoustic World Of Ann Southam
[img=right]https://i97.fastpic.ru/big/2018/1110/53/fd5272f2610...cce353.jpg[/img]
Жанр: Electronic, Classical
Носитель: CD
Страна-производитель диска (релиза): Canada
Год издания: 1999
Издатель (лейбл): Furiant Records ‎
Номер по каталогу: FMDC 4604-2
Аудиокодек: FLAC (*.flac)
Тип рипа: tracks+.cue
Битрейт аудио: lossless
Продолжительность: 01:03:36
Источник (релизер): локальная сеть
Наличие сканов в содержимом раздачи: нет
Треклист:
1 Reprieve
2 Fluke Sound
3 Walls And Passageways
4 Seastill

Лог создания рипа

Exact Audio Copy V1.0 beta 3 from 29. August 2011
EAC extraction logfile from 14. April 2014, 19:32
Ann Southam / Seastill - The electroacoustic world of Ann Southam
Used drive : ASUS DRW-24F1ST a Adapter: 2 ID: 0
Read mode : SecureUtilize accurate stream : YesDefeat audio cache : YesMake use of C2 pointers : No
Read offset correction : 6Overread into Lead-In and Lead-Out : NoFill up missing offset samples with silence : YesDelete leading and trailing silent blocks : NoNull samples used in CRC calculations : YesUsed interface : Native Win32 interface for Win NT & 2000Gap handling : Appended to previous track
Used output format : User Defined EncoderSelected bitrate : 320 kBit/sQuality : HighAdd ID3 tag : NoCommand line compressor : C:\Program Files\Exact Audio Copy\Flac\flac.exeAdditional command line options : -V -8 -T "artist=%artist%" -T "title=%title%" -T "album=%albumtitle%" -T "date=%year%" -T "tracknumber=%tracknr%" -T "genre=%genre%" %source%
TOC of the extracted CD
Track | Start | Length | Start sector | End sector --------------------------------------------------------- 1 | 0:00.00 | 25:58.62 | 0 | 116911 2 | 25:58.62 | 10:23.55 | 116912 | 163691 3 | 36:22.42 | 11:36.55 | 163692 | 215946 4 | 47:59.22 | 15:39.43 | 215947 | 286414
Track 1
Filename C:\Program Files\Secure Rips\Ann Southam - 1999 - Seastill - The electroacoustic world of Ann Southam\01 - Reprieve.wav
Pre-gap length 0:00:02.00
Peak level 95.8 % Extraction speed 6.4 X Track quality 100.0 % Test CRC 4A38F39A Copy CRC 4A38F39A Track not present in AccurateRip database Copy OK
Track 2
Filename C:\Program Files\Secure Rips\Ann Southam - 1999 - Seastill - The electroacoustic world of Ann Southam\02 - Fluke Sound.wav
Pre-gap length 0:00:05.88
Peak level 96.6 % Extraction speed 7.9 X Track quality 100.0 % Test CRC 1C4800AE Copy CRC 1C4800AE Track not present in AccurateRip database Copy OK
Track 3
Filename C:\Program Files\Secure Rips\Ann Southam - 1999 - Seastill - The electroacoustic world of Ann Southam\03 - Walls and Passageways.wav
Pre-gap length 0:00:06.96
Peak level 97.6 % Extraction speed 8.7 X Track quality 100.0 % Test CRC E0E690B5 Copy CRC E0E690B5 Track not present in AccurateRip database Copy OK
Track 4
Filename C:\Program Files\Secure Rips\Ann Southam - 1999 - Seastill - The electroacoustic world of Ann Southam\04 - Seastill.wav
Pre-gap length 0:00:07.29
Peak level 41.0 % Extraction speed 8.9 X Track quality 99.9 % Test CRC 8E8B7ADF Copy CRC 8E8B7ADF Track not present in AccurateRip database Copy OK
None of the tracks are present in the AccurateRip database
No errors occurred
End of status report
==== Log checksum 86AC40E7CCA97B60294DC2291C3B3B930B1854B120663508472198B6E7DD7097 ====

Содержание индексной карты (.CUE)

REM DATE 1999REM DISCID 300EEA04REM COMMENT "ExactAudioCopy v1.0b3"FILE "01 - Reprieve.wav" WAVE TRACK 01 AUDIO INDEX 01 00:00:00 TRACK 02 AUDIO INDEX 00 25:52:71FILE "02 - Fluke Sound.wav" WAVE INDEX 01 00:00:00 TRACK 03 AUDIO INDEX 00 10:16:58FILE "03 - Walls and Passageways.wav" WAVE INDEX 01 00:00:00 TRACK 04 AUDIO INDEX 00 11:29:33FILE "04 - Seastill.wav" WAVE INDEX 01 00:00:00


[torrentc.info]_t_5642197.torrent
Торрент: Зарегистрирован ·  [ 2018-11-14 22:01 ] ·  047f3ee670f936134e7b5bc0e95306c24d47e3cd

13 KB

Статус: проверено
Скачан: 0 раз
Размер: 308 MB
Оценка: 
(Голосов: 0)
Сказали спасибо: 0  Спасибо
Похожие темы
[Профиль]    [ЛС]
Показать сообщения:    
Ответить на тему

Текущее время: Сегодня 06:26

Часовой пояс: GMT + 7



Вы не можете начинать темы
Вы не можете отвечать на сообщения
Вы не можете редактировать свои сообщения
Вы не можете удалять свои сообщения
Вы не можете голосовать в опросах
Вы не можете прикреплять файлы к сообщениям
Вы можете скачивать файлы