(Modern Classical) [CD] Ann Southam / Eve Egoyan - Simple Lines Of Enquiry - 2009, FLAC (tracks+.cue), lossless

Ответить на тему
Статистика раздачи [Обновить пиров]
Размер:  195 MB   |    Зарегистрирован:  28 дней   |    Скачан:  0 раз

Полного источника не было: Никогда

 
   
 
 
 
Автор Сообщение

torrentc.info

Создавать темы 14-Ноя-2018 22:04

[Цитировать]

Ann Southam / Eve Egoyan / Simple Lines Of Enquiry
[img=right]https://i97.fastpic.ru/big/2018/1110/02/3bce216219a...36da02.jpg[/img]
Жанр: Modern Classical
Носитель: CD
Страна-производитель диска (релиза): Canada
Год издания: 2009
Издатель (лейбл): Centrediscs
Номер по каталогу: CMCCD 14609
Аудиокодек: FLAC (*.flac)
Тип рипа: tracks+.cue
Битрейт аудио: lossless
Продолжительность: 00:58:59
Источник (релизер): локальная сеть
Наличие сканов в содержимом раздачи: нет
Треклист:
Simple Lines Of Enquiry (58:41)
1 Movement 1 4:40
2 Movement 2 4:45
3 Movement 3 4:53
4 Movement 4 4:57
5 Movement 5 5:01
6 Movement 6 4:42
7 Movement 7 4:56
8 Movement 8 4:15
9 Movement 9 5:16
10 Movements 10-11 9:40
11 Movement 12 5:57

Лог создания рипа

Exact Audio Copy V0.99 prebeta 5 from 4. May 2009
EAC extraction logfile from 8. November 2010, 17:45
Ann Southam / Simple Lines of Enquiry
Used drive : PIONEER DVD-RW DVR-109 Adapter: 1 ID: 0
Read mode : SecureUtilize accurate stream : YesDefeat audio cache : YesMake use of C2 pointers : No
Read offset correction : 48Overread into Lead-In and Lead-Out : NoFill up missing offset samples with silence : YesDelete leading and trailing silent blocks : NoNull samples used in CRC calculations : YesUsed interface : Native Win32 interface for Win NT & 2000Gap handling : Appended to previous track
Used output format : User Defined EncoderSelected bitrate : 1024 kBit/sQuality : HighAdd ID3 tag : NoCommand line compressor : C:\Program Files\Exact Audio Copy\Flac\flac.exeAdditional command line options : -8 -V -T "ARTIST=%a" -T "TITLE=%t" -T "ALBUM=%g" -T "DATE=%y" -T "TRACKNUMBER=%n" -T "TOTALTRACKS=%x" -T "GENRE=%m" -T "ALBUMARTIST=%v" -T "ALBUM ARTIST=%v" -T "COMMENT=EAC Secure Mode, Test & Copy, AccurateRip, FLAC -8" %s
TOC of the extracted CD
Track | Start | Length | Start sector | End sector --------------------------------------------------------- 1 | 0:00.00 | 4:40.15 | 0 | 21014 2 | 4:40.15 | 4:44.72 | 21015 | 42386 3 | 9:25.12 | 4:53.30 | 42387 | 64391 4 | 14:18.42 | 4:56.73 | 64392 | 86664 5 | 19:15.40 | 5:01.65 | 86665 | 109304 6 | 24:17.30 | 4:42.22 | 109305 | 130476 7 | 28:59.52 | 4:55.73 | 130477 | 152674 8 | 33:55.50 | 4:15.20 | 152675 | 171819 9 | 38:10.70 | 5:16.60 | 171820 | 195579 10 | 43:27.55 | 9:40.47 | 195580 | 239126 11 | 53:08.27 | 5:57.05 | 239127 | 265906
Track 1
Filename D:\Torrent\Ann Southam - Simple Lines of Enquiry (2009) [FLAC]\01 - Movement 1.wav
Pre-gap length 0:00:02.00
Peak level 59.2 % Track quality 100.0 % Test CRC CC2504E2 Copy CRC CC2504E2 Track not present in AccurateRip database Copy OK
Track 2
Filename D:\Torrent\Ann Southam - Simple Lines of Enquiry (2009) [FLAC]\02 - Movement 2.wav
Peak level 53.4 % Track quality 100.0 % Test CRC 30F062BE Copy CRC 30F062BE Track not present in AccurateRip database Copy OK
Track 3
Filename D:\Torrent\Ann Southam - Simple Lines of Enquiry (2009) [FLAC]\03 - Movement 3.wav
Peak level 45.7 % Track quality 100.0 % Test CRC B126E413 Copy CRC B126E413 Track not present in AccurateRip database Copy OK
Track 4
Filename D:\Torrent\Ann Southam - Simple Lines of Enquiry (2009) [FLAC]\04 - Movement 4.wav
Peak level 71.6 % Track quality 100.0 % Test CRC BDA5AEDF Copy CRC BDA5AEDF Track not present in AccurateRip database Copy OK
Track 5
Filename D:\Torrent\Ann Southam - Simple Lines of Enquiry (2009) [FLAC]\05 - Movement 5.wav
Peak level 88.4 % Track quality 100.0 % Test CRC 82CB778A Copy CRC 82CB778A Track not present in AccurateRip database Copy OK
Track 6
Filename D:\Torrent\Ann Southam - Simple Lines of Enquiry (2009) [FLAC]\06 - Movement 6.wav
Peak level 72.6 % Track quality 100.0 % Test CRC DBA56211 Copy CRC DBA56211 Track not present in AccurateRip database Copy OK
Track 7
Filename D:\Torrent\Ann Southam - Simple Lines of Enquiry (2009) [FLAC]\07 - Movement 7.wav
Peak level 58.4 % Track quality 100.0 % Test CRC 70A26D67 Copy CRC 70A26D67 Track not present in AccurateRip database Copy OK
Track 8
Filename D:\Torrent\Ann Southam - Simple Lines of Enquiry (2009) [FLAC]\08 - Movement 8.wav
Peak level 75.6 % Track quality 100.0 % Test CRC 58DAB9F1 Copy CRC 58DAB9F1 Track not present in AccurateRip database Copy OK
Track 9
Filename D:\Torrent\Ann Southam - Simple Lines of Enquiry (2009) [FLAC]\09 - Movement 9.wav
Peak level 71.9 % Track quality 99.9 % Test CRC D31174AE Copy CRC D31174AE Track not present in AccurateRip database Copy OK
Track 10
Filename D:\Torrent\Ann Southam - Simple Lines of Enquiry (2009) [FLAC]\10 - Movements 10-11.wav
Peak level 72.1 % Track quality 100.0 % Test CRC E1E094E9 Copy CRC E1E094E9 Track not present in AccurateRip database Copy OK
Track 11
Filename D:\Torrent\Ann Southam - Simple Lines of Enquiry (2009) [FLAC]\11 - Movement 12.wav
Peak level 51.0 % Track quality 100.0 % Test CRC 61549534 Copy CRC 61549534 Track not present in AccurateRip database Copy OK
None of the tracks are present in the AccurateRip database
No errors occurred
End of status report

Содержание индексной карты (.CUE)

REM GENRE "Contemporary Classical"REM DATE 2009REM DISCID 950DD90BREM COMMENT "ExactAudioCopy v0.99pb5"PERFORMER "Ann Southam"TITLE "Simple Lines of Enquiry"FILE "01 - Movement 1.wav" WAVE TRACK 01 AUDIO TITLE "Movement 1" PERFORMER "Ann Southam" INDEX 01 00:00:00FILE "02 - Movement 2.wav" WAVE TRACK 02 AUDIO TITLE "Movement 2" PERFORMER "Ann Southam" INDEX 01 00:00:00FILE "03 - Movement 3.wav" WAVE TRACK 03 AUDIO TITLE "Movement 3" PERFORMER "Ann Southam" INDEX 01 00:00:00FILE "04 - Movement 4.wav" WAVE TRACK 04 AUDIO TITLE "Movement 4" PERFORMER "Ann Southam" INDEX 01 00:00:00FILE "05 - Movement 5.wav" WAVE TRACK 05 AUDIO TITLE "Movement 5" PERFORMER "Ann Southam" INDEX 01 00:00:00FILE "06 - Movement 6.wav" WAVE TRACK 06 AUDIO TITLE "Movement 6" PERFORMER "Ann Southam" INDEX 01 00:00:00FILE "07 - Movement 7.wav" WAVE TRACK 07 AUDIO TITLE "Movement 7" PERFORMER "Ann Southam" INDEX 01 00:00:00FILE "08 - Movement 8.wav" WAVE TRACK 08 AUDIO TITLE "Movement 8" PERFORMER "Ann Southam" INDEX 01 00:00:00FILE "09 - Movement 9.wav" WAVE TRACK 09 AUDIO TITLE "Movement 9" PERFORMER "Ann Southam" INDEX 01 00:00:00FILE "10 - Movements 10-11.wav" WAVE TRACK 10 AUDIO TITLE "Movements 10-11" PERFORMER "Ann Southam" INDEX 01 00:00:00 INDEX 02 04:23:45FILE "11 - Movement 12.wav" WAVE TRACK 11 AUDIO TITLE "Movement 12" PERFORMER "Ann Southam" INDEX 01 00:00:00


[torrentc.info]_t_5642207.torrent
Торрент: Зарегистрирован ·  [ 2018-11-14 22:01 ] ·  494c7dbbd1e42d3d93650dc1751bb5ead82b026c

16 KB

Статус: проверено
Скачан: 0 раз
Размер: 195 MB
Оценка: 
(Голосов: 0)
Сказали спасибо: 0  Спасибо
Похожие темы
[Профиль]    [ЛС]
Показать сообщения:    
Ответить на тему

Текущее время: Сегодня 01:57

Часовой пояс: GMT + 7



Вы не можете начинать темы
Вы не можете отвечать на сообщения
Вы не можете редактировать свои сообщения
Вы не можете удалять свои сообщения
Вы не можете голосовать в опросах
Вы не можете прикреплять файлы к сообщениям
Вы можете скачивать файлы