(Acid Jazz/Funk/Fusion) [CDM] US3 - Cantaloop (Remix) - 1993, FLAC (tracks+.cue), lossless

Ответить на тему
Статистика раздачи [Обновить пиров]
Размер:  76 MB   |    Зарегистрирован:  1 месяц 4 дня   |    Скачан:  0 раз

Полного источника не было: Никогда

 
   
 
 
 
Автор Сообщение

torrentc.info

Создавать темы 14-Ноя-2018 22:04

[Цитировать]

US3 - Cantaloop (Remix)
Жанр: Acid Jazz/Funk/Fusion
Носитель: CDM
Страна-производитель диска (релиза): Netherlands
Год издания: 1993
Издатель (лейбл): Capitol Records
Номер по каталогу: 7243 8 80592 2 0
Аудиокодек: FLAC (*.flac)
Тип рипа: tracks+.cue
Битрейт аудио: lossless
Продолжительность: 00:12:29
Источник (релизер): own rip
Наличие сканов в содержимом раздачи: нет

01 Cantaloop (Slain Pass Mix) (4:31)
02 Cantaloop (Groovy Mix) (4:16)
03 Cantaloop (Edit) (3:42)

Лог создания рипа

Exact Audio Copy V1.3 from 2. September 2016
EAC extraction logfile from 13. November 2018, 7:06
US3 / Cantaloop (Remix)
Used drive : TSSTcorpCDDVDW SN-208BB Adapter: 1 ID: 0
Read mode : SecureUtilize accurate stream : YesDefeat audio cache : YesMake use of C2 pointers : No
Read offset correction : 6Overread into Lead-In and Lead-Out : NoFill up missing offset samples with silence : YesDelete leading and trailing silent blocks : NoNull samples used in CRC calculations : YesUsed interface : Native Win32 interface for Win NT & 2000Gap handling : Appended to previous track
Used output format : User Defined EncoderSelected bitrate : 1024 kBit/sQuality : HighAdd ID3 tag : NoCommand line compressor : C:\Program Files (x86)\Exact Audio Copy\FLAC\FLAC.EXEAdditional command line options : -8 -V -T "artist=%artist%" -T "title=%title%" -T "album=%albumtitle%" -T "date=%year%" -T "tracknumber=%tracknr%" -T "genre=%genre%" %source%
TOC of the extracted CD
Track | Start | Length | Start sector | End sector --------------------------------------------------------- 1 | 0:00.00 | 4:31.02 | 0 | 20326 2 | 4:31.02 | 4:16.08 | 20327 | 39534 3 | 8:47.10 | 3:42.20 | 39535 | 56204
Track 1
Filename E:\Torrent\US3 - Cantaloop (Remix) (Maxi CD Single)\01 - Cantaloop (Slain Pass Mix).wav
Pre-gap length 0:00:02.00
Peak level 97.6 % Extraction speed 1.7 X Track quality 100.0 % Test CRC E5EF2BA1 Copy CRC E5EF2BA1 Accurately ripped (confidence 3) [A31ECA5B] (AR v2) Copy OK
Track 2
Filename E:\Torrent\US3 - Cantaloop (Remix) (Maxi CD Single)\02 - Cantaloop (Groovy Mix).wav
Pre-gap length 0:00:02.25
Peak level 100.0 % Extraction speed 1.9 X Track quality 100.0 % Test CRC 84FDBFBA Copy CRC 84FDBFBA Accurately ripped (confidence 3) [E04185BE] (AR v2) Copy OK
Track 3
Filename E:\Torrent\US3 - Cantaloop (Remix) (Maxi CD Single)\03 - Cantaloop (Edit).wav
Pre-gap length 0:00:02.13
Peak level 95.7 % Extraction speed 2.0 X Track quality 100.0 % Test CRC B034F500 Copy CRC B034F500 Accurately ripped (confidence 3) [3BE1E0C1] (AR v2) Copy OK
All tracks accurately ripped
No errors occurred
End of status report
---- CUETools DB Plugin V2.1.6
[CTDB TOCID: vX1KpV0SwqV.FuuR_xU34Ja2D6g-] foundSubmit result: vX1KpV0SwqV.FuuR_xU34Ja2D6g- has been confirmedTrack | CTDB Status 1 | (13/13) Accurately ripped 2 | (13/13) Accurately ripped 3 | (13/13) Accurately ripped
==== Log checksum 2A91C4989BEAB5AF92639B23CC840E1DB52A632B11AA744DECDC993ED6A33446 ====

Содержание индексной карты (.CUE)

REM GENRE "Acid Jazz"REM DATE 1993REM DISCID 1E02ED03REM COMMENT "ExactAudioCopy v1.3"PERFORMER "US3"TITLE "Cantaloop (Remix)"REM COMPOSER ""FILE "01 - Cantaloop (Slain Pass Mix).wav" WAVE TRACK 01 AUDIO TITLE "Cantaloop (Slain Pass Mix)" PERFORMER "US3" REM COMPOSER "" INDEX 01 00:00:00 TRACK 02 AUDIO TITLE "Cantaloop (Groovy Mix)" PERFORMER "US3" REM COMPOSER "" INDEX 00 04:28:52FILE "02 - Cantaloop (Groovy Mix).wav" WAVE INDEX 01 00:00:00 TRACK 03 AUDIO TITLE "Cantaloop (Edit)" PERFORMER "US3" REM COMPOSER "" INDEX 00 04:13:70FILE "03 - Cantaloop (Edit).wav" WAVE INDEX 01 00:00:00


[torrentc.info]_t_5644316.torrent
Торрент: Зарегистрирован ·  [ 2018-11-14 22:01 ] ·  94c086cca37bb0bf32883356a8a1b5698390ac1e

13 KB

Статус: проверено
Скачан: 0 раз
Размер: 76 MB
Оценка: 
(Голосов: 0)
Сказали спасибо: 0  Спасибо
Похожие темы
[Профиль]    [ЛС]
Показать сообщения:    
Ответить на тему

Текущее время: Сегодня 06:27

Часовой пояс: GMT + 7



Вы не можете начинать темы
Вы не можете отвечать на сообщения
Вы не можете редактировать свои сообщения
Вы не можете удалять свои сообщения
Вы не можете голосовать в опросах
Вы не можете прикреплять файлы к сообщениям
Вы можете скачивать файлы