(Trance) [CDM] Hypnotic Beat - Ocean Of Passion - 1998, FLAC (tracks+.cue), lossless

Ответить на тему
Статистика раздачи [Обновить пиров]
Размер:  212 MB   |    Зарегистрирован:  28 дней   |    Скачан:  0 раз

Полного источника не было: Никогда

 
   
 
 
 
Автор Сообщение

torrentc.info

Создавать темы 14-Ноя-2018 22:02

[Цитировать]

Hypnotic Beat / Ocean Of Passion
Жанр: Trance
Носитель: CDM
Страна-производитель диска (релиза): Germany
Год издания: 1998
Издатель (лейбл): Happy Music
Номер по каталогу: HMC 0003-8
Страна исполнителя (группы): Germany
Аудиокодек: FLAC (*.flac)
Тип рипа: tracks+.cue
Битрейт аудио: lossless
Продолжительность: 00:31:21
Источник (релизер): Собственный рип
Наличие сканов в содержимом раздачи: да
Треклист:
01 Ocean Of Passion (Radio Edit) 3:28
02 Ocean Of Passion (Seashore Mix) 7:32
03 Ocean Of Passion (Longin' Remix) 6:03
04 Ocean Of Passion (Ambient Mix) 3:27
05 Ocean Of Passion (Divin' Deeper Mix) 4:32
06 Ocean Of Passion (Maxi Club Mix) 5:19

Лог создания рипа

Exact Audio Copy V1.3 from 2. September 2016
Отчёт EAC об извлечении, выполненном 8. ноября 2018, 9:51
Hypnotic Beat / Ocean Of Passion
Дисковод: ATAPI iHAS124 F Adapter: 1 ID: 0
Режим чтения : ДостоверностьИспользование точного потока : ДаОтключение кэша аудио : ДаИспользование указателей C2 : Нет
Коррекция смещения при чтении : 6Способность читать области Lead-in и Lead-out : НетЗаполнение пропущенных сэмплов тишиной : ДаУдаление блоков с тишиной в начале и конце : НетПри вычислениях CRC использовались нулевые сэмплы : ДаИнтерфейс : Встроенный Win32-интерфейс для Win NT/2000Обработка зазоров : Добавлено к предыдущему треку
Выходной формат : Пользовательский кодировщикВыбранный битрейт : 128 kBit/sКачество : ВысокийДобавление ID3-тега : НетУтилита сжатия : C:\Program Files (x86)\Exact Audio Copy\Flac\flac.exeДополнительные параметры : -V -8 -T "Date=%year%" -T "Genre=%genre%" %source%
TOC извлечённого CD
Трек | Старт | Длительность | Начальный сектор | Конечный сектор --------------------------------------------------------------------- 1 | 0:00.00 | 3:28.58 | 0 | 15657 2 | 3:28.58 | 7:33.47 | 15658 | 49679 3 | 11:02.30 | 6:04.69 | 49680 | 77048 4 | 17:07.24 | 3:27.13 | 77049 | 92586 5 | 20:34.37 | 4:32.73 | 92587 | 113059 6 | 25:07.35 | 5:17.65 | 113060 | 136899
Трек 1
Имя файла G:\НА РАЗДАЧУ\Ocean Of Passion\01 Ocean Of Passion (Radio Edit).wav
Длина предзазора 0:00:02.00
Пиковый уровень 100.0 % Скорость извлечения 4.6 X Качество трека 100.0 % CRC копии 447F1BBC Точное извлечение (достоверность 2) [A27ED84E] (AR v2) Копирование... OK
Трек 2
Имя файла G:\НА РАЗДАЧУ\Ocean Of Passion\02 Ocean Of Passion (Seashore Mix).wav
Копирование прервано
Трек 3
Длина предзазора 0:00:00.45
Копирование прервано
Трек 4
Длина предзазора 0:00:00.45
Копирование прервано
Трек 5
Длина предзазора 0:00:00.45
Копирование прервано
Трек 6
Длина предзазора 0:00:00.45
Копирование прервано
1 трек(и) скопированы точно 5 трек(и) отменены
Некоторые треки не прошли проверку на точность
Были ошибки
Конец отчёта
==== Контрольная сумма отчёта 435C587936AA627CCCAF8769F5562981BCEF4F4EC0CBBF67F62C7188DFAB8F48 ====
------------------------------------------------------------
Exact Audio Copy V1.3 from 2. September 2016
Отчёт EAC об извлечении, выполненном 8. ноября 2018, 10:03
Hypnotic Beat / Ocean Of Passion
Дисковод: ATAPI iHAS124 F Adapter: 1 ID: 0
Режим чтения : ДостоверностьИспользование точного потока : ДаОтключение кэша аудио : ДаИспользование указателей C2 : Нет
Коррекция смещения при чтении : 6Способность читать области Lead-in и Lead-out : НетЗаполнение пропущенных сэмплов тишиной : ДаУдаление блоков с тишиной в начале и конце : НетПри вычислениях CRC использовались нулевые сэмплы : ДаИнтерфейс : Встроенный Win32-интерфейс для Win NT/2000Обработка зазоров : Добавлено к предыдущему треку
Выходной формат : Пользовательский кодировщикВыбранный битрейт : 128 kBit/sКачество : ВысокийДобавление ID3-тега : НетУтилита сжатия : C:\Program Files (x86)\Exact Audio Copy\Flac\flac.exeДополнительные параметры : -V -8 -T "Date=%year%" -T "Genre=%genre%" %source%
TOC извлечённого CD
Трек | Старт | Длительность | Начальный сектор | Конечный сектор --------------------------------------------------------------------- 1 | 0:00.00 | 3:28.58 | 0 | 15657 2 | 3:28.58 | 7:33.47 | 15658 | 49679 3 | 11:02.30 | 6:04.69 | 49680 | 77048 4 | 17:07.24 | 3:27.13 | 77049 | 92586 5 | 20:34.37 | 4:32.73 | 92587 | 113059 6 | 25:07.35 | 5:17.65 | 113060 | 136899
Трек 1
Имя файла G:\НА РАЗДАЧУ\Ocean Of Passion\01 Ocean Of Passion (Radio Edit).wav
Длина предзазора 0:00:02.00
Пиковый уровень 100.0 % Скорость извлечения 5.0 X Качество трека 100.0 % CRC теста 447F1BBC CRC копии 447F1BBC Точное извлечение (достоверность 2) [A27ED84E] (AR v2) Копирование... OK
Трек 2
Имя файла G:\НА РАЗДАЧУ\Ocean Of Passion\02 Ocean Of Passion (Seashore Mix).wav
Пиковый уровень 100.0 % Скорость извлечения 6.3 X Качество трека 100.0 % CRC теста 8BEEBB1D CRC копии 8BEEBB1D Точное извлечение (достоверность 2) [DAAF4BB8] (AR v2) Копирование... OK
Трек 3
Имя файла G:\НА РАЗДАЧУ\Ocean Of Passion\03 Ocean Of Passion (Longin' Remix).wav
Длина предзазора 0:00:00.45
Пиковый уровень 100.0 % Скорость извлечения 7.1 X Качество трека 100.0 % CRC теста 012AF4A1 CRC копии 012AF4A1 Точное извлечение (достоверность 2) [3C0BC462] (AR v2) Копирование... OK
Трек 4
Имя файла G:\НА РАЗДАЧУ\Ocean Of Passion\04 Ocean Of Passion (Ambient Mix).wav
Длина предзазора 0:00:00.45
Пиковый уровень 100.0 % Скорость извлечения 6.2 X Качество трека 99.9 % CRC теста 29334D22 CRC копии 29334D22 Точное извлечение (достоверность 2) [5A7AA957] (AR v2) Копирование... OK
Трек 5
Имя файла G:\НА РАЗДАЧУ\Ocean Of Passion\05 Ocean Of Passion (Divin' Deeper Mix).wav
Длина предзазора 0:00:00.45
Пиковый уровень 100.0 % Скорость извлечения 7.8 X Качество трека 100.0 % CRC теста 7D669652 CRC копии 7D669652 Точное извлечение (достоверность 2) [1E3A3100] (AR v2) Копирование... OK
Трек 6
Имя файла G:\НА РАЗДАЧУ\Ocean Of Passion\06 Ocean Of Passion (Maxi Club Mix).wav
Длина предзазора 0:00:00.45
Пиковый уровень 100.0 % Скорость извлечения 8.5 X Качество трека 100.0 % CRC теста 2139ECF9 CRC копии 2139ECF9 Точное извлечение (достоверность 2) [B3517022] (AR v2) Копирование... OK
Все треки извлечены точно
Ошибок не произошло
Конец отчёта
==== Контрольная сумма отчёта 6811A7D9BE86D7F7697B3648B76341BA4BDCD4635C58AA47B5828482FDA52DF1 ====

Содержание индексной карты (.CUE)

REM GENRE TranceREM DATE 1998REM DISCID 3C072106REM COMMENT "ExactAudioCopy v1.3"PERFORMER "Hypnotic Beat"TITLE "Ocean Of Passion"REM COMPOSER ""FILE "01 Ocean Of Passion (Radio Edit).wav" WAVE TRACK 01 AUDIO TITLE "Ocean Of Passion (Radio Edit)" PERFORMER "Hypnotic Beat" REM COMPOSER "" INDEX 01 00:00:00FILE "02 Ocean Of Passion (Seashore Mix).wav" WAVE TRACK 02 AUDIO TITLE "Ocean Of Passion (Seashore Mix)" PERFORMER "Hypnotic Beat" REM COMPOSER "" INDEX 01 00:00:00 TRACK 03 AUDIO TITLE "Ocean Of Passion (Longin' Remix)" PERFORMER "Hypnotic Beat" REM COMPOSER "" INDEX 00 07:33:02FILE "03 Ocean Of Passion (Longin' Remix).wav" WAVE INDEX 01 00:00:00 TRACK 04 AUDIO TITLE "Ocean Of Passion (Ambient Mix)" PERFORMER "Hypnotic Beat" REM COMPOSER "" INDEX 00 06:04:24FILE "04 Ocean Of Passion (Ambient Mix).wav" WAVE INDEX 01 00:00:00 TRACK 05 AUDIO TITLE "Ocean Of Passion (Divin' Deeper Mix)" PERFORMER "Hypnotic Beat" REM COMPOSER "" INDEX 00 03:26:43FILE "05 Ocean Of Passion (Divin' Deeper Mix).wav" WAVE INDEX 01 00:00:00 TRACK 06 AUDIO TITLE "Ocean Of Passion (Maxi Club Mix)" PERFORMER "Hypnotic Beat" REM COMPOSER "" INDEX 00 04:32:28FILE "06 Ocean Of Passion (Maxi Club Mix).wav" WAVE INDEX 01 00:00:00


[torrentc.info]_t_5642019.torrent
Торрент: Зарегистрирован ·  [ 2018-11-14 22:01 ] ·  d2b1a6f86c6e76069b27d691712a21ce4674e35f

18 KB

Статус: проверено
Скачан: 0 раз
Размер: 212 MB
Оценка: 
(Голосов: 0)
Сказали спасибо: 0  Спасибо
Похожие темы
[Профиль]    [ЛС]
Показать сообщения:    
Ответить на тему

Текущее время: Сегодня 01:58

Часовой пояс: GMT + 7



Вы не можете начинать темы
Вы не можете отвечать на сообщения
Вы не можете редактировать свои сообщения
Вы не можете удалять свои сообщения
Вы не можете голосовать в опросах
Вы не можете прикреплять файлы к сообщениям
Вы можете скачивать файлы