Всё для тебя / Nene Raju Nene Mantri (Теджа / Teja) [2017, Индия, боевик, триллер, криминал, WEBRip] MVO (SDI Media) + Original

Ответить на тему
Статистика раздачи [Обновить пиров]
Размер:  2.19 GB   |    Зарегистрирован:  1 месяц 1 день   |    Скачан:  0 раз

Полного источника не было: Никогда

 
   
 
 
 
Автор Сообщение

torrentc.info

Создавать темы 20-Окт-2018 23:31

[Цитировать]

Всё для тебя / Nene Raju Nene Mantri
Страна: Индия
Жанр: боевик, триллер, криминал
Год выхода: 2017
Продолжительность: 02:30:43
Перевод: Профессиональный (многоголосый закадровый) SDI Media
Субтитры: нет
Оригинальная аудиодорожка: телугу
Режиссер: Теджа / Teja
В ролях: Махеш Ачанта
Каджал
Эджей
Rajsekhar Aningi
Аннапурна
Sanjana Anne
Таникелла Бхарани
Bindu Chandramouli
Рана Даггубати
Raghu Kumar Karumanchi
Описание: У ростовщика Джоги была только она — его жена Радха. Они мирно и счастливо жили в своей деревне — до тех пор, пока с Радхой не случилась беда. Теперь Джоги уверен: чтобы его жена была счастлива, он должен вступить в политические игры и выйти победителем, чего бы это ни стоило.
Доп. информация: В видео присутствует табачная и алкогольная реклама (а как иначе ее еще назвать - не замазывали бы постоянно сигареты и рюмки, никто бы и внимание на них не обращал).
Сэмпл: http://multi-up.com/1212412
Качество видео: WEBRip
Формат файла: AVI
Видео: MPEG4, XviD, 720x304 (2.35:1), 23.976 fps, 1 424 Kbps (0.271 bit/pixel)
Аудио: AC-3, 48.0 KHz, 2 ch, 192 Kbps, CBR - русский
Аудио 2: AC-3, 48.0 KHz, 6 ch, 448 Kbps, CBR - телугу

MediaInfo

ОбщееПолное имя : F:\Все для тебя.aviФормат файла : AVIФормат файла/Информация : Audio Video InterleaveПрофиль формата : OpenDMLРазмер файла : 2,19 ГбайтПродолжительность : 2 ч. 30 м.Общий поток : 2082 Кбит/секНазвание фильма : Всё для тебя / Nene Raju Nene Mantri (2017)Программа кодирования : VirtualDubMod 1.5.10.2 (build 2540/release)Библиотека кодирования : VirtualDubMod build 2540/releaseАвторское право : miha2154
ВидеоИдентификатор : 0Формат файла : MPEG-4 VisualПрофиль формата : Advanced Simple@L5Настройки формата : BVOP1 / Custom MatrixПараметр BVOP формата : 1Параметр QPel формата : НетПараметр GMC формата : Без точки переходаПараметр матрицы формата : ВыборочнаяИдентификатор кодека : XVIDИдентификатор кодека/Подсказка : XviDПродолжительность : 2 ч. 30 м.Битрейт : 1424 Кбит/секШирина : 720 пикселейВысота : 304 пикселяСоотношение сторон : 2,35:1Частота кадров : 23,976 (24000/1001) кадра/секЦветовое пространство : YUVСубдискретизация насыщенности : 4:2:0Битовая глубина : 8 битТип развёртки : ПрогрессивнаяМетод сжатия : С потерямиБит/(Пиксели*Кадры) : 0.271Размер потока : 1,50 Гбайт (68%)Библиотека кодирования : XviD 65
Аудио #1Идентификатор : 1Формат файла : AC-3Формат файла/Информация : Audio Coding 3Коммерческое название : Dolby DigitalИдентификатор кодека : 2000Продолжительность : 2 ч. 30 м.Вид битрейта : ПостоянныйБитрейт : 192 Кбит/секКаналы : 2 каналаChannel layout : L RЧастота : 48,0 КГцЧастота кадров : 31,250 кадров/сек (1536 SPF)Битовая глубина : 16 битМетод сжатия : С потерямиРазмер потока : 207 Мбайт (9%)Выравнивание : Разделение по промежуткамПродолжительность промежутка : 42 мс. (1,00 видеокадр)Время предзагрузки промежутка : 500 мс.Заголовок : Профессиональный (многоголосый, закадровый) Индийское КиноServiceKind/String : Complete Main
Аудио #2Идентификатор : 2Формат файла : AC-3Формат файла/Информация : Audio Coding 3Коммерческое название : Dolby DigitalИдентификатор кодека : 2000Продолжительность : 2 ч. 30 м.Вид битрейта : ПостоянныйБитрейт : 448 Кбит/секКаналы : 6 каналовChannel layout : L R C LFE Ls RsЧастота : 48,0 КГцЧастота кадров : 31,250 кадров/сек (1536 SPF)Битовая глубина : 16 битМетод сжатия : С потерямиРазмер потока : 483 Мбайт (22%)Выравнивание : Разделение по промежуткамПродолжительность промежутка : 42 мс. (1,00 видеокадр)Время предзагрузки промежутка : 500 мс.Заголовок : ТелугуServiceKind/String : Complete Main

Скриншот c названием фильма

[img]https://a.radikal.ru/a34/1810/3c/9474aed46147.png[/img]


[torrentc.info]_t_5631885.torrent
Торрент: Зарегистрирован ·  [ 2018-10-20 23:31 ] ·  9e8d4e14c5d7456dbfbafd6186e25045e3b6229f

11 KB

Статус: проверено
Скачан: 0 раз
Размер: 2.19 GB
Оценка: 
(Голосов: 0)
Сказали спасибо: 0  Спасибо
Похожие темы
[Профиль]    [ЛС]
Показать сообщения:    
Ответить на тему

Текущее время: Сегодня 17:52

Часовой пояс: GMT + 7



Вы не можете начинать темы
Вы не можете отвечать на сообщения
Вы не можете редактировать свои сообщения
Вы не можете удалять свои сообщения
Вы не можете голосовать в опросах
Вы не можете прикреплять файлы к сообщениям
Вы можете скачивать файлы