Пациент Зеро / Patient Zero (Штефан Руцовицки / Stefan Ruzowitzky) [2018, Великобритания, ужасы, боевик, драма, BDRip] MVO (HDRezka Studio) + Original (Eng)

Ответить на тему
 
Автор Сообщение

torrentc.info

Создавать темы 18-Окт-2018 23:49

[Цитировать]

Пациент Зеро / Patient Zero-[img=right]https://i1.imageban.ru/out/2018/10/18/9a24a315a9b8d...f1623b.jpg[/img]
Год выхода: 2018
Выпущено: Великобритания / Screen Gems
Жанр: ужасы, боевик, драма
Продолжительность: 01:26:47
Перевод: Любительский (многоголосый закадровый) HDRezka Studio
Субтитры: нет
Оригинальная аудиодорожка: Английская-Режиссер:
Штефан Руцовицки / Stefan Ruzowitzky-В ролях:
Натали Дормер, Мэтт Смит, Стэнли Туччи, Клайв Стэнден, Фредерик Шмидт, Агнесс Дейн, Джон Брэдли, Пиппа Беннетт-Уорнер, Колин МакФарлэйн, Дильяна Буклиева-О фильме:
По Земле прокатился вирус, в результате которого большая часть населения превратилась в кровожадных и жестоких безумцев или, иными словами, в «инфицированных». Цивилизация погружается в хаос, человечество стоит на грани вымирания. Морган может понимать речь инфицированных и разговаривать с ними, потому что однажды был укушен, но не обратился. А вот его жене повезло меньше — она заражена. Морган пытается найти так называемого пациента Зеро, с помощью которого можно создать антивирус и спасти человечество.-
| | IMDB | КиноПоиск | Сэмпл |-Качество: BDRip [Patient.Zero.2018.BluRay.1080p.AVC.DTS-HD.MA5.1-MTeam]
Формат файла: AVI
Видео: 720x304 (2.37:1), 23.976 fps, XviD build 67 ~2007 kbps avg, 0.38 bit/pixel
Аудио #1: 48 kHz, AC3 Dolby Digital, 2/0 (L,R) ch, ~192 kbps avg (RUS)
Аудио #2: 48 kHz, AC3 Dolby Digital, 2/0 (L,R) ch, ~192 kbps avg (ENG)-
[img]https://i5.imageban.ru/thumbs/2018.10.18/f4e6b9bd4f8774ee7ad29bf2a2772f3b.jpg[/img]-[img]https://i2.imageban.ru/thumbs/2018.10.18/d53f5117cbd5d3693a5b06c3af974d99.jpg[/img][img]https://i6.imageban.ru/thumbs/2018.10.18/cc1dfc57f1810afcaf717e8b07e57cca.jpg[/img][img]https://i6.imageban.ru/thumbs/2018.10.18/91558e43664604255254cb2159baa1e5.jpg[/img][img]https://i4.imageban.ru/thumbs/2018.10.18/bc99bbf3b23d455c909cf64fad916a95.jpg[/img]MediaInfo">

Скриншоты[img]https://i5.imageban.ru/thumbs/2018.10.18/f4e6b9bd4f8774ee7ad29bf2a2772f3b.jpg[/img]-[img]https://i2.imageban.ru/thumbs/2018.10.18/d53f5117cbd5d3693a5b06c3af974d99.jpg[/img][img]https://i6.imageban.ru/thumbs/2018.10.18/cc1dfc57f1810afcaf717e8b07e57cca.jpg[/img][img]https://i6.imageban.ru/thumbs/2018.10.18/91558e43664604255254cb2159baa1e5.jpg[/img][img]https://i4.imageban.ru/thumbs/2018.10.18/bc99bbf3b23d455c909cf64fad916a95.jpg[/img]MediaInfo

Общее
Полное имя                               : D:\Patient_Zero_2018_BDRip_MVO_by_Dalemake.avi
Формат файла                                   : AVI
Формат файла/Информация                        : Audio Video Interleave
Размер файла                             : 1,46 Гбайт
Продолжительность                        : 1 ч. 26 м.
Общий поток                              : 2406 Кбит/сек
Программа кодирования                    : VirtualDubMod 1.5.10.3 | www.virtualdub-fr.org || (build 2550/release)
Библиотека кодирования                   : VirtualDubMod build 2550/release
Видео
Идентификатор                            : 0
Формат файла                                   : MPEG-4 Visual
Профиль формата                          : Advanced Simple@L5
Параметр BVOP формата                    : 1
Параметр QPel формата                    : Нет
Параметр GMC формата                     : Без точки перехода
Параметр матрицы формата                 : Выборочная
Идентификатор кодека                     : XVID
Идентификатор кодека/Подсказка           : XviD
Продолжительность                        : 1 ч. 26 м.
Битрейт                                  : 2008 Кбит/сек
Ширина                                   : 720 пикселей
Высота                                   : 304 пикселя
Соотношение сторон                       : 2,35:1
Частота кадров                           : 23,976 кадра/сек
Цветовое пространство                    : YUV
Субдискретизация насыщенности            : 4:2:0
Битовая глубина                          : 8 бит
Тип развёртки                            : Прогрессивная
Метод сжатия                             : С потерями
Бит/(Пиксели*Кадры)                      : 0.383
Размер потока                            : 1,22 Гбайт (83%)
Библиотека кодирования                   : XviD 67
Аудио #1
Идентификатор                            : 1
Формат файла                                   : AC-3
Формат файла/Информация                        : Audio Coding 3
Расширение режима                        : CM (complete main)
Параметр Endianness формата              : Big
Идентификатор кодека                     : 2000
Продолжительность                        : 1 ч. 26 м.
Вид битрейта                             : Постоянный
Битрейт                                  : 192 Кбит/сек
Каналы                                   : 2 канала
Расположение каналов                     : Front: L R
Частота                                  : 48,0 КГц
Метод сжатия                             : С потерями
Размер потока                            : 119 Мбайт (8%)
Выравнивание                             : Разделение по промежуткам
Продолжительность промежутка             : 42  мс. (1,00 видеокадр)
Время предзагрузки промежутка            : 500  мс.
Аудио #2
Идентификатор                            : 2
Формат файла                                   : AC-3
Формат файла/Информация                        : Audio Coding 3
Расширение режима                        : CM (complete main)
Параметр Endianness формата              : Big
Идентификатор кодека                     : 2000
Продолжительность                        : 1 ч. 26 м.
Вид битрейта                             : Постоянный
Битрейт                                  : 192 Кбит/сек
Каналы                                   : 2 канала
Расположение каналов                     : Front: L R
Частота                                  : 48,0 КГц
Метод сжатия                             : С потерями
Размер потока                            : 119 Мбайт (8%)
Выравнивание                             : Разделение по промежуткам
Продолжительность промежутка             : 42  мс. (1,00 видеокадр)
Время предзагрузки промежутка            : 500  мс.
-
[Профиль]    [ЛС]
Показать сообщения:    
Ответить на тему

Текущее время: Сегодня 09:11

Часовой пояс: GMT + 7



Вы не можете начинать темы
Вы не можете отвечать на сообщения
Вы не можете редактировать свои сообщения
Вы не можете удалять свои сообщения
Вы не можете голосовать в опросах
Вы не можете прикреплять файлы к сообщениям
Вы не можете скачивать файлы