Храбрые ведьмы / Brave Witches [TV+Special] [без хардсаба] [12+1 из 12+1] [JAP+SUB] & [12+0 из 12+1] [RUS(ext)] [2016, приключения, комедия, этти, BDRip] [720p]

Ответить на тему
Статистика раздачи [Обновить пиров]
Размер:  9.82 GB   |    Зарегистрирован:  1 месяц 1 день   |    Скачан:  0 раз

Полного источника не было: Никогда

 
   
 
 
 
Автор Сообщение

torrentc.info

Создавать темы 18-Окт-2018 20:21

[Цитировать]

- Год выхода: 2016
Страна: Япония
Жанр: приключения, комедия, этти
Продолжительность: ТВ, 12 эп. по 24 мин., спешал 24 мин.-Перевод:
  • русские субтитры от MnemosyneKsailocent, Tieria D. Flourite, Asuran D. Flourite [AOS] эп. 1-12
  • русские субтитры от Seiya Loveless, Саша Ушкина эп. 1-12
  • русские субтитры от Nelar спешал
-Режиссер: Такамура Кадзухиро
Студия: Silver Link-Описание:
В конце ХХ века планету ожидала военная катастрофа. Новый враг пришёл неожиданно, и был невероятно силён. Естественно, люди не знали способов борьбы с ним – на тот момент простые военные технологии были бесполезны. Прозванный Невроем, враг беспощадно разрушал всё на своём пути. Выжженные земли, бездушные руины – вот всё, что оставалось после его атак. Напуганные страны, отбросив разногласия, объединились в борьбе с захватчиком. Учёным удалось изобрести особое оружие. Уникальный симбиоз техники и магии, управлять которым могли только девушки с особенными способностями – ведьмы. Только с их помощью удалось погасить волну наступления Невроя в Западной Европе.
По прошествии нескольких лет опасность немного утихла, но подготовке ведьм уделялось большое внимание. Создавалось множество школ и тренировочных баз для этих целей. Студенткой первого курса одной из таких школ и была Хикари Карибути. Вдохновлённая опытом сестры – младшего лейтенанта Таками, героини Сасибо – она много трудилась, чтобы хоть чуточку быть похожей на неё. И вдруг Хикари представился шанс показать все свои способности. Несмотря на прошлые неудачи, у неё всё получилось. Теперь она могла отправиться с сестрой в Европу, где союзные войска в кратчайшие сроки собирали ведьм. Видимо, пришло время врагу снова показать свои силы.© Dreamfighter, World Art-Информационные ссылки: AniDB || World Art || MAL-Качество: BDRip
Энкод: Druidblack
Тип видео: без хардсаба, без линковки; с главами
Формат файла: mkv
Видео: x264 (Hi10p), 1280x720, ~3800 Kbps, 23.976 fps
Аудио JAP: AC3, 48000Hz, ~256 Kbps, 2ch
Аудио RUS 1: AAC, 48000Hz, ~192 Kbps, 2ch (внешними файлами)-

Список озвучек в раздаче

  • Многоголосая от Trina_D & Oriko & Nika Lenina & Cuba77 (AniDub)

Список эпизодов

01. Ведьма из Сасаэбо?
02. Сражайся, Чидори
03. 502-е сводное истребительное крыло
04. Хочешь сражаться - стань сильнее
05. Смертельная битва в лютый мороз
06. Удачи
07. Святой ночью
08. Виноградный сок для твоего взора
09. Ведьмы-вредители
10. Старшая и младшая
11. Не попробуешь — не узнаешь
12. В сиянии света...
S1. Великая Стратегия Петербурга

Скриншоты

Отличия от других раздач

antiBILLotic - BDRippcab1829 - BDRippcab1829 - все серии

Подробные тех. данные

General
Unique ID : 108821508936981038280326028341655863086 (0x51DE42A0C2BCC030881240DDF93B7F2E)
Complete name : V:\Аниме (BD_DVD)\Храбрые ведьмы\Brave Witches [BD] [720p]\Brave Witches ep.01.mkv
Format : Matroska
Format version : Version 4 / Version 2
File size : 705 MiB
Duration : 23 min 42 s
Overall bit rate : 4 157 kb/s
Encoded date : UTC 2018-10-09 19:43:04
Writing application : mkvmerge v26.0.0 ('In The Game') 64-bit
Writing library : libebml v1.3.6 + libmatroska v1.4.9
Encoding Gui : Hybrid 2018.10.07.1
Video
ID : 1
Format : AVC
Format/Info : Advanced Video Codec
Format profile : High 10@L5.1
Format settings : CABAC / 9 Ref Frames
Format settings, CABAC : Yes
Format settings, ReFrames : 9 frames
Codec ID : V_MPEG4/ISO/AVC
Duration : 23 min 42 s
Bit rate : 3 902 kb/s
Width : 1 280 pixels
Height : 720 pixels
Display aspect ratio : 16:9
Frame rate mode : Constant
Frame rate : 23.976 (24000/1001) FPS
Color space : YUV
Chroma subsampling : 4:2:0
Bit depth : 10 bits
Scan type : Progressive
Bits/(Pixel*Frame) : 0.177
Stream size : 662 MiB (94%)
Writing library : x264 core 157 r2935 545de2f
Encoding settings : cabac=1 / ref=9 / deblock=1:1:1 / analyse=0x3:0x133 / me=umh / subme=9 / psy=1 / psy_rd=1.00:0.00 / mixed_ref=1 / me_range=32 / chroma_me=1 / trellis=2 / 8x8dct=1 / cqm=0 / deadzone=21,11 / fast_pskip=1 / chroma_qp_offset=-2 / threads=34 / lookahead_threads=5 / sliced_threads=0 / nr=0 / decimate=1 / interlaced=0 / bluray_compat=0 / constrained_intra=0 / bframes=9 / b_pyramid=2 / b_adapt=2 / b_bias=0 / direct=1 / weightb=1 / open_gop=0 / weightp=2 / keyint=250 / keyint_min=23 / scenecut=40 / intra_refresh=0 / rc_lookahead=60 / rc=crf / mbtree=0 / crf=16.7 / qcomp=0.70 / qpmin=0 / qpmax=81 / qpstep=4 / vbv_maxrate=720000 / vbv_bufsize=720000 / crf_max=0.0 / nal_hrd=none / filler=0 / ip_ratio=1.40 / pb_ratio=1.30 / aq=1:1.00
Default : Yes
Forced : Yes
Color range : Limited
Matrix coefficients : BT.709
Audio
ID : 2
Format : AC-3
Format/Info : Audio Coding 3
Commercial name : Dolby Digital
Codec ID : A_AC3
Duration : 23 min 25 s
Bit rate mode : Constant
Bit rate : 256 kb/s
Channel(s) : 2 channels
Channel layout : L R
Sampling rate : 48.0 kHz
Frame rate : 31.250 FPS (1536 SPF)
Bit depth : 16 bits
Compression mode : Lossy
Stream size : 42.9 MiB (6%)
Language : Japanese
Service kind : Complete Main
Default : Yes
Forced : No
Menu
00:00:00.000 : en:00:00:00.000
00:01:43.020 : en:00:01:43.020
00:03:12.984 : en:00:03:12.984
00:11:23.975 : en:00:11:23.975
00:21:55.940 : en:00:21:55.940
-

Информация о релизе

  • Выбор видео, перевода, озвучки, а также типа сборки материала осуществляется релизером и не подлежит обсуждению. Если вы считаете, что раздаваемый материал противоречит правилам раздела "Аниме" Torrentc, сообщите об этом одному из модераторов раздела.
  • В случае появления нового материала или же лучшего по качеству материала релизер оставляет за собой право обновить раздачу. В этом случае вам необходимо ознакомиться с изменениями (добавлениями) и перекачать торрент.
  • Данный релиз предназначен для просмотра на ПК. Воспроизведение на иных проигрывателях не гарантируется. Для просмотра рекомендуется Media Player Classic с установленным пакетом кодеков K-Lite.
  • Данный релиз содержит 10-битное видео (Hi10p). Для корректного воспроизведения обязательно используйте кодеки, поддерживающие 10-битное видео.
    Обсудить частные случаи проблем с воспроизведением и получить дополнительную информацию можно здесь.

  • Данный релиз предназначен для просмотра с внешними субтитрами и внешними звуковыми дорожками.
    • Для просмотра с внешней звуковой дорожкой нужно:
      перекинуть файлы .mka из папки "RUS Sound []" в одну папку с видео и переключить звуковую дорожку в плеере при просмотре. Как это сделать в разных плеерах подробно описано здесь.

    • Для просмотра с субтитрами нужно:
      перекинуть файлы .ass из папки "RUS Subtitles []" в одну папку с видео - плеер подгрузит их автоматически при открытии видео.


[torrentc.info]_t_5628075.torrent
Торрент: Зарегистрирован ·  [ 2018-10-18 20:19 ] ·  72e18d53206e5d7e667b197d95bc6775c29b566b

31 KB

Статус: проверено
Скачан: 0 раз
Размер: 9.82 GB
Оценка: 
(Голосов: 0)
Сказали спасибо: 0  Спасибо
Похожие темы
[Профиль]    [ЛС]
Показать сообщения:    
Ответить на тему

Текущее время: Сегодня 23:21

Часовой пояс: GMT + 7



Вы не можете начинать темы
Вы не можете отвечать на сообщения
Вы не можете редактировать свои сообщения
Вы не можете удалять свои сообщения
Вы не можете голосовать в опросах
Вы не можете прикреплять файлы к сообщениям
Вы можете скачивать файлы