Charli XCX feat. Lil Yachty - After The Afterparty [2016, Synthpop/Electropop/Pop/Hip Hop, MasterRip, 1080p]

Ответить на тему
Статистика раздачи [Обновить пиров]
Размер:  271 MB   |    Зарегистрирован:  2 месяца 2 дня   |    Скачан:  0 раз

Полного источника не было: Никогда

 
   
 
 
 
Автор Сообщение

torrentc.info

Создавать темы 16-Окт-2018 22:46

[Цитировать]

Charli XCX feat. Lil Yachty - After The Afterparty Жанр: Synthpop/Electropop/Pop/Hip Hop
Продолжительность: 00:03:43
Год выхода: 2016
Описание: Любит певица Charli XCX посещать неадекватные вечеринки. Новые друзья у артистки действительно странные ребята)) Несмотря на то, что в видео намекается на адскую сущность гостей party, яркие краски придают клипу забавность.
Весело, задорно и кроваво (в какой-то степени).
Качество: MasterRip
Разрешение видео/развертка: 1080p
Формат файла: MOV
Видео кодек: AVC
Аудио кодек: AAC
Видео: 1920 x 1080 (1.778) at 24.000 fps AVC at 9875 Кбит/сек
Аудио: 2 канала, 48,0 КГц AAC at 256 Кбит/сек

Отчёт MediaInfo / BDInfo

Формат файла : MPEG-4Профиль формата : QuickTimeИдентификатор кодека : qt 0000.00 (qt )Размер файла : 271 МбайтПродолжительность : 3 м. 43 с.Режим общего битрейта : ПеременныйОбщий поток : 10,1 Мбит/секПрограмма кодирования : Mac OS X v10.7.5 (CMA 891, CM 705.94, x86_64)Библиотека кодирования : Apple QuickTime
ВидеоИдентификатор : 2Формат файла : AVCФормат файла/Информация : Advanced Video CodecПрофиль формата : High@L4Параметр CABAC формата : НетПараметр ReFrames формата : 2 кадраПараметр GOP формата : M=2, N=60Идентификатор кодека : avc1Идентификатор кодека/Информация : Advanced Video CodingПродолжительность : 3 м. 43 с.Вид битрейта : ПеременныйБитрейт : 9875 Кбит/секМаксимальный битрейт : 12,7 Мбит/секШирина : 1920 пикселейВысота : 1080 пикселейСоотношение сторон : 16:9Режим частоты кадров : ПеременныйЧастота кадров : 24,000 кадра/секМинимальная частота кадров : 15,000 кадров/секМаксимальная частота кадров : 30,000 кадров/секЦветовое пространство : YUVСубдискретизация насыщенности : 4:2:0Битовая глубина : 8 битТип развёртки : ПрогрессивнаяБит/(Пиксели*Кадры) : 0.198Размер потока : 264 Мбайт (97%)Заголовок : Core Media VideoЦветовой диапазон : LimitedОсновные цвета : BT.709Характеристики трансфера : BT.709Коэффициенты матрицы : BT.709
АудиоИдентификатор : 1Формат файла : AACФормат файла/Информация : Advanced Audio CodecПрофиль формата : LCИдентификатор кодека : 40Продолжительность : 3 м. 39 с.Продолжительность оригинала : 3 м. 39 с.Вид битрейта : ПостоянныйБитрейт : 256 Кбит/секКаналы : 2 каналаРасположение каналов : Front: L RЧастота : 48,0 КГцЧастота кадров : 46,875 кадров/сек (1024 spf)Метод сжатия : С потерямиРазмер потока : 6,84 Мбайт (3%)Размер потока оригинала : 6,84 Мбайт (3%)Заголовок : Core Media Audio

Скриншоты



[torrentc.info]_t_5615024.torrent
Торрент: Зарегистрирован ·  [ 2018-10-16 22:43 ] ·  61dd471a596c66cba3f8f61af392a23b517b3427

11 KB

Статус: проверено
Скачан: 0 раз
Размер: 271 MB
Оценка: 
(Голосов: 0)
Сказали спасибо: 0  Спасибо
Похожие темы
[Профиль]    [ЛС]
Показать сообщения:    
Ответить на тему

Текущее время: Сегодня 08:28

Часовой пояс: GMT + 7



Вы не можете начинать темы
Вы не можете отвечать на сообщения
Вы не можете редактировать свои сообщения
Вы не можете удалять свои сообщения
Вы не можете голосовать в опросах
Вы не можете прикреплять файлы к сообщениям
Вы можете скачивать файлы