Little Feat - Live in Holland 1976 [2014, Rock,, DVDRip]

Ответить на тему
Статистика раздачи [Обновить пиров]
Размер:  757 MB   |    Зарегистрирован:  2 месяца 2 дня   |    Скачан:  0 раз

Полного источника не было: Никогда

 
   
 
 
 
Автор Сообщение

torrentc.info

Создавать темы 16-Окт-2018 22:44

[Цитировать]

Little Feat - Live in Holland 1976 Жанр: Rock,
Продолжительность: 00:53:38.
Год выхода: 2014
Описание: Концертное видео Little Feat - Live in Holland 1976.
Little Feat — американская рок-группа, образовавшаяся в 1969 году в Лос-Анджелесе, Калифорния, и исполнявшая эклектичный блюз-рок с элементами кантри-рока, южного рока, ритм-энд-блюза, музыки соул. Высокое техническое мастерство музыкантов (согласно Allmusic) удачно вписывалось в общий формат классик-рока 1970-х годов, но группа создавала крайне неортодоксальную музыку и — во многом благодаря оригинальным музыкальным идеям лидера Лоуэлла Джорджа (в прошлом — участника Mothers of Invention) — приобрела культовый статус и уважение музыкальных критиков. Джимми Пейдж из Led Zeppelin в интервью 1975 года журналу Rolling Stone назвал Little Feat своим любимым американским ансамблем.
После смерти Лоуэлла Джорджа в 1979 году группа распалась, а воссоединившись в 1987 году, не сумела восстановить прежний авторитет — хотя, гастролировала каждый раз с неизменным успехом. Одиннадцать альбомов Little Feat входили в Billboard 200.

( материалом поделился lexxer68 )
Треклист:
1. Skin It Back
2. Fat Man In A Bathtub
3. Rock And Roll Doctor
4. All That You Dream
5. Cold Cold Cold
6. Dixie Chicken
7. Tripe Face Boogie
8. Feats Don't Fail Me Now
9. Teenage Nervous Breakdown

Доп. информация: по видео

скрытый текст

Полное имя Little Feat - Live in Holland 1976.avi
Формат файла : AVI
Формат файла/Информация : Audio Video Interleave
Размер файла : 757 Мбайт
Продолжительность : 53 м.
Общий поток : 1972 Кбит/сек
Программа кодирования : Lavf51.12.1
Видео
Идентификатор : 0
Формат файла : xvid
Идентификатор кодека : xvid
Продолжительность : 53 м.
Битрейт : 1768 Кбит/сек
Ширина : 640 пикселей
Высота : 480 пикселей
Соотношение сторон : 4:3
Частота кадров : 23,976 кадра/сек
Бит/(Пиксели*Кадры) : 0.240
Размер потока : 678 Мбайт (90%)
Аудио
Идентификатор : 1
Формат файла : MPEG Audio
Версия формата : Version 1
Профиль формата : Layer 3
Режим : Joint stereo
Расширение режима : MS Stereo
Идентификатор кодека : 55
Идентификатор кодека/Подсказка : MP3
Продолжительность : 53 м.
Вид битрейта : Постоянный
Битрейт : 192 Кбит/сек
Каналы : 2 канала
Частота : 48,0 КГц
Метод сжатия : С потерями
Размер потока : 73,7 Мбайт (10%)
Выравнивание : Соединение по промежуткам
Продолжительность промежутка : 24 мс. (0,58 видеокадр)
Библиотека кодирования : LAME3.97
Источник: собственный рип
Cсылка [url=viewtopic.php?sid=mip95Ylj&t=5628006]http://Torrentc/forum/viewtopic.php?sid=mip95Ylj&t=5628006[/url]
Качество: DVDRip
Формат файла: AVI
Видео кодек: XviD
Аудио кодек: AC3
Видео: 640x480 (1.33:1), 23.970 fps, XviD build 63 ~1766 kbps avg, 0.24 bit/pixel
Аудио: 48 kHz, MPEG Layer 3, 2 ch, ~192.00 kbps av

Скриншоты

Мои другие раздачи 1 - [url=tracker.php?rid=14861751]http://Torrentc/forum/tracker.php?rid=14861751[/url]
Мои другие раздачи 2- [url=tracker.php?rid=26740408]http://Torrentc/forum/tracker.php?rid=26740408[/url]Приятного просмотра!


[torrentc.info]_t_5628527.torrent
Торрент: Зарегистрирован ·  [ 2018-10-16 22:43 ] ·  4a632db7c0d9e4608c4b833ca104a60959fc6a43

15 KB

Статус: проверено
Скачан: 0 раз
Размер: 757 MB
Оценка: 
(Голосов: 0)
Сказали спасибо: 0  Спасибо
Похожие темы
[Профиль]    [ЛС]
Показать сообщения:    
Ответить на тему

Текущее время: Сегодня 08:40

Часовой пояс: GMT + 7



Вы не можете начинать темы
Вы не можете отвечать на сообщения
Вы не можете редактировать свои сообщения
Вы не можете удалять свои сообщения
Вы не можете голосовать в опросах
Вы не можете прикреплять файлы к сообщениям
Вы можете скачивать файлы