[TR24][OF] Counting Hours - Demo - 2016 (Melodic Death/Doom Metal | Depressive Rock)

Ответить на тему
Статистика раздачи [Обновить пиров]
Размер:  285 MB   |    Зарегистрирован:  1 месяц 3 дня   |    Скачан:  0 раз

Полного источника не было: Никогда

 
   
 
 
 
Автор Сообщение

torrentc.info

Создавать темы 16-Окт-2018 22:44

[Цитировать]

Counting Hours / Demo
[img=right]https://image.ibb.co/mJCROp/Counting_Hours_Demo_Cover.jpg[/img]
Формат файла записи/Источник записи: [TR24][OF]
Наличие водяных знаков: Нет
Год издания/переиздания диска: 2016
Страна: Finland
Жанр: Melodic Death/Doom Metal | Depressive Rock
Продолжительность: 0:24:38
Наличие сканов в содержимом раздачи: да
Треклист:
01. Saviour (6:18)
02. To exit all false (5:31)
03. Buried in the white (7:05)
04. Wintry insight (5:44)
Формат файла: FLAC (*.flac)
Тип рипа: tracks
Разрядность: 24/44,1
Формат файла: PCM
Количество каналов: 2.0

Лог проверки качества

foobar2000 1.4 / Замер динамического диапазона (DR) 1.1.1Дата отчёта: 2018-10-10 03:24:54
--------------------------------------------------------------------------------Анализ: Counting Hours / Demo--------------------------------------------------------------------------------
DR Пики RMS Продолжительность трека--------------------------------------------------------------------------------DR12 0.00 дБ -13.75 дБ 6:18 01-01 SaviourDR11 0.00 дБ -12.89 дБ 5:31 02-02 To exit all falseDR11 0.00 дБ -13.75 дБ 7:05 03-03 Buried in the whiteDR12 -0.33 дБ -13.50 дБ 5:44 04-04 Wintry insight--------------------------------------------------------------------------------
Количество треков: 4Реальные значения DR: DR12
Частота: 44100 ГцКаналов: 2Разрядность: 24Битрейт: 1571 кбит/сКодек: FLAC================================================================================
Источник (релизер): bandcamp-


[torrentc.info]_t_5626561.torrent
Торрент: Зарегистрирован ·  [ 2018-10-16 22:43 ] ·  4bf5cd492aec4cdf3cb5eee56369cde2a7c0e9d7

12 KB

Статус: проверено
Скачан: 0 раз
Размер: 285 MB
Оценка: 
(Голосов: 0)
Сказали спасибо: 0  Спасибо
Похожие темы
[Профиль]    [ЛС]
Показать сообщения:    
Ответить на тему

Текущее время: Сегодня 22:45

Часовой пояс: GMT + 7



Вы не можете начинать темы
Вы не можете отвечать на сообщения
Вы не можете редактировать свои сообщения
Вы не можете удалять свои сообщения
Вы не можете голосовать в опросах
Вы не можете прикреплять файлы к сообщениям
Вы можете скачивать файлы