(Humpaa Beer Folk Rock) [CD] Оркестръ Тролля (Оркестр Тролля) (Сайд-проект Кости Тролля из группы "Тролль Гнет Ель") - Дискография (3CD) - 2013-2018, FLAC (image+.cue), lossless

Ответить на тему
Статистика раздачи [Обновить пиров]
Размер:  930 MB   |    Зарегистрирован:  1 месяц 2 дня   |    Скачан:  0 раз

Полного источника не было: Никогда

 
   
 
 
 
Автор Сообщение

torrentc.info

Создавать темы 16-Окт-2018 22:43

[Цитировать]

Оркестръ Тролля (Оркестр Тролля) - Дискография (3CD)
Жанр: Humpaa Beer Folk Rock
Носитель: CD
Страна-производитель диска (релиза): Россия
Год издания: 2013-2018
Издатель (лейбл): Sound Age Productions
Страна исполнителя (группы): Россия
Аудиокодек: FLAC (*.flac)
Тип рипа: image+.cue
Битрейт аудио: lossless
Продолжительность: 01:55:07
Источник (релизер): Из личной коллекции
Наличие сканов в содержимом раздачи: да
Рипнуто мной с личных дисков, mp3 можно найти тут!

Раздача обновлена, добавлен новый альбом!
Треклист:

2013 - Пивбаръ (The beer bar) [Digipak], SAPCD 257, 41:56

01 - Пивбаръ [The beer bar] [03:12]
02 - Выжить бы до пенсии [To live till a pension] [03:34]
03 - Мой ирландский сон [My irish dream] [03:35]
04 - С Днем рождения, именинник! [Happy birthday, friend!] [03:01]
05 - Песня музыкантов-гастролеров [Barnstormers' song] [03:12]
06 - Когда бармен грустит [When a barman is sad] [03:51]
07 - Виски в кружках [Whiskey in the jars] [03:36]
08 - Хмельные кроны [The heady czech korunas] [03:10]
09 - Питер-Питер! [Peter-Peter!] [03:26]
10 - Звон бутылок (Где тот парень?) [The clink of bottles (where's that guy?)] [03:38]
11 - На севере [In the north] [03:37]
12 - Хоум, свит хоум [Home, sweet home] [04:09]

Лог создания рипа

Exact Audio Copy V1.1 from 23. June 2015
EAC extraction logfile from 6. December 2015, 3:48
Оркестръ Тролля / Пивбаръ (The beer bar) [Digipak]
Used drive : Optiarc DVD RW AD-5240S Adapter: 1 ID: 0
Read mode : SecureUtilize accurate stream : YesDefeat audio cache : YesMake use of C2 pointers : No
Read offset correction : 48Overread into Lead-In and Lead-Out : NoFill up missing offset samples with silence : YesDelete leading and trailing silent blocks : NoNull samples used in CRC calculations : YesUsed interface : Native Win32 interface for Win NT & 2000
Used output format : User Defined EncoderSelected bitrate : 128 kBit/sQuality : HighAdd ID3 tag : NoCommand line compressor : C:\Program Files\Exact Audio Copy\Flac\flac.exeAdditional command line options : -V -8 -T "Date=%year%" -T "Genre=%genre%" %source%
TOC of the extracted CD
Track | Start | Length | Start sector | End sector --------------------------------------------------------- 1 | 0:00.00 | 3:11.13 | 0 | 14337 2 | 3:11.13 | 3:33.47 | 14338 | 30359 3 | 6:44.60 | 3:34.26 | 30360 | 46435 4 | 10:19.11 | 3:00.04 | 46436 | 59939 5 | 13:19.15 | 3:11.48 | 59940 | 74312 6 | 16:30.63 | 3:50.72 | 74313 | 91634 7 | 20:21.60 | 3:35.70 | 91635 | 107829 8 | 23:57.55 | 3:09.69 | 107830 | 122073 9 | 27:07.49 | 3:25.03 | 122074 | 137451 10 | 30:32.52 | 3:37.51 | 137452 | 153777 11 | 34:10.28 | 3:36.52 | 153778 | 170029 12 | 37:47.05 | 4:08.66 | 170030 | 188695
Range status and errors
Selected range
Filename D:\Оркестръ Тролля [FLAC]\2013 - Пивбаръ\2013 - Пивбаръ (The beer bar) [Digipak].wav
Peak level 100.0 % Extraction speed 3.8 X Range quality 100.0 % Test CRC 84A1DC52 Copy CRC 84A1DC52 Copy OK
No errors occurred
AccurateRip summary
Track 1 accurately ripped (confidence 3) [4CFD4A4A] (AR v2)Track 2 accurately ripped (confidence 3) [56DE8D74] (AR v2)Track 3 accurately ripped (confidence 3) [5794D600] (AR v2)Track 4 accurately ripped (confidence 3) [9E73ECB9] (AR v2)Track 5 accurately ripped (confidence 3) [C3CB7C52] (AR v2)Track 6 accurately ripped (confidence 3) [BCBAE821] (AR v2)Track 7 accurately ripped (confidence 3) [F76736CC] (AR v2)Track 8 accurately ripped (confidence 3) [56A6D260] (AR v2)Track 9 accurately ripped (confidence 3) [847FD4C6] (AR v2)Track 10 accurately ripped (confidence 3) [52A79E47] (AR v2)Track 11 accurately ripped (confidence 3) [59502C73] (AR v2)Track 12 accurately ripped (confidence 3) [D13D2689] (AR v2)
All tracks accurately ripped
End of status report
---- CUETools DB Plugin V2.1.6
[CTDB TOCID: yRAcJgwks0NTMhYkaDj_ri96_5Q-] foundSubmit result: already submittedTrack | CTDB Status 1 | (3/3) Accurately ripped 2 | (3/3) Accurately ripped 3 | (3/3) Accurately ripped 4 | (3/3) Accurately ripped 5 | (3/3) Accurately ripped 6 | (3/3) Accurately ripped 7 | (3/3) Accurately ripped 8 | (3/3) Accurately ripped 9 | (3/3) Accurately ripped 10 | (3/3) Accurately ripped 11 | (3/3) Accurately ripped 12 | (3/3) Accurately ripped
==== Log checksum D2E0DDDD8537F722956A7D0253E0900CB6D42DCC1529C2965D8445AC9DBD6165 ====

Лог проверки качества

auCDtect

-----------------------
DON'T MODIFY THIS FILE
-----------------------
PERFORMER: auCDtect Task Manager, ver. 1.6.0 RC1 build 1.6.0.1
Copyright (c) 2008-2010 y-soft. All rights reserved
http://y-soft.org
ANALYZER: auCDtect: CD records authenticity detector, version 0.8.2
Copyright (c) 2004 Oleg Berngardt. All rights reserved.
Copyright (c) 2004 Alexander Djourik. All rights reserved.
FILE: 2013 - Пивбаръ (The beer bar) [Digipak].flac
Size: 315735270 Hash: D29ADA2409AF86349096F57EC7E90C2F Accuracy: -m0
Conclusion: CDDA 100%
Signature: 15610C5FBC3D6DA6470CA4CF17D7BD0CEE4960B4

CUETools log

[CUETools log; Date: 06.12.2015 17:17:01; Version: 2.1.6]
[CTDB TOCID: yRAcJgwks0NTMhYkaDj_ri96_5Q-] found.
Track | CTDB Status
1 | (3/3) Accurately ripped
2 | (3/3) Accurately ripped
3 | (3/3) Accurately ripped
4 | (3/3) Accurately ripped
5 | (3/3) Accurately ripped
6 | (3/3) Accurately ripped
7 | (3/3) Accurately ripped
8 | (3/3) Accurately ripped
9 | (3/3) Accurately ripped
10 | (3/3) Accurately ripped
11 | (3/3) Accurately ripped
12 | (3/3) Accurately ripped
[AccurateRip ID: 00124352-00ab1a04-9609d30c] found.
Track [ CRC | V2 ] Status
01 [84e2ad94|4cfd4a4a] (0+3/3) Accurately ripped
02 [187bb4ef|56de8d74] (0+3/3) Accurately ripped
03 [f62467fb|5794d600] (0+3/3) Accurately ripped
04 [cd774591|9e73ecb9] (0+3/3) Accurately ripped
05 [f9e1383f|c3cb7c52] (0+3/3) Accurately ripped
06 [0bc006a3|bcbae821] (0+3/3) Accurately ripped
07 [2a6a63bd|f76736cc] (0+3/3) Accurately ripped
08 [08de1bb6|56a6d260] (0+3/3) Accurately ripped
09 [44881639|847fd4c6] (0+3/3) Accurately ripped
10 [c5f2cb51|52a79e47] (0+3/3) Accurately ripped
11 [9932d7ac|59502c73] (0+3/3) Accurately ripped
12 [92b7cf36|d13d2689] (0+3/3) Accurately ripped
Track Peak [ CRC32 ] [W/O NULL] [ LOG ]
-- 100,0 [84A1DC52] [FA1D0A1C] CRC32
01 100,0 [5437E534] [B5BDE7CD]
02 100,0 [77432C33] [5C2E2695]
03 100,0 [10781BC5] [1DEA113D]
04 100,0 [C81B5FE9] [55CDA505]
05 100,0 [C498923F] [1600E430]
06 100,0 [087BCD79] [1BBC9040]
07 100,0 [D9B9DA5B] [81BE8819]
08 100,0 [32328B23] [CB2CEA77]
09 100,0 [47A1B1AF] [F4B26BDD]
10 100,0 [27B6F895] [D852C93C]
11 100,0 [9B383188] [3E6D6191]
12 100,0 [1576056F] [2C24463E]

Проверка на логов на подлинность

c:\Program Files\Exact Audio Copy>CheckLog.exe "d:\Оркестръ Тролля [FLAC]\2013 -
Пивбаръ\2013 - Пивбаръ (The beer bar) [Digipak].log"
Log Integrity Checker (C) 2010 by Andre Wiethoff
1. Log entry is fine!

Скриншот спектра частот

2015 - Турбо Ретро [Digipak], SAPCD 306D, 42:34

01 - Петербургский шансонье [03:26]
02 - Пятикрылый [04:15]
03 - Германеевка [02:55]
04 - Пузыри [02:39]
05 - Водка Полька Хумппа [03:15]
06 - Элитный алкоголь [03:57]
07 - Бар закрывается [03:53]
08 - Десять [03:42]
09 - Амстердам [05:10]
10 - Снежинка [03:34]
11 - За пивом [03:34]
12 - Импровизация [Hidden track] [02:20]

Лог создания рипа

Exact Audio Copy V1.1 from 23. June 2015
EAC extraction logfile from 6. December 2015, 3:15
Оркестръ Тролля / Турбо Ретро [Digipak]
Used drive : Optiarc DVD RW AD-5240S Adapter: 1 ID: 0
Read mode : SecureUtilize accurate stream : YesDefeat audio cache : YesMake use of C2 pointers : No
Read offset correction : 48Overread into Lead-In and Lead-Out : NoFill up missing offset samples with silence : YesDelete leading and trailing silent blocks : NoNull samples used in CRC calculations : YesUsed interface : Native Win32 interface for Win NT & 2000
Used output format : User Defined EncoderSelected bitrate : 128 kBit/sQuality : HighAdd ID3 tag : NoCommand line compressor : C:\Program Files\Exact Audio Copy\Flac\flac.exeAdditional command line options : -V -8 -T "Date=%year%" -T "Genre=%genre%" %source%
TOC of the extracted CD
Track | Start | Length | Start sector | End sector --------------------------------------------------------- 1 | 0:00.00 | 3:25.17 | 0 | 15391 2 | 3:25.17 | 4:14.47 | 15392 | 34488 3 | 7:39.64 | 2:54.43 | 34489 | 47581 4 | 10:34.32 | 2:38.09 | 47582 | 59440 5 | 13:12.41 | 3:14.23 | 59441 | 74013 6 | 16:26.64 | 3:56.31 | 74014 | 91744 7 | 20:23.20 | 3:52.70 | 91745 | 109214 8 | 24:16.15 | 3:41.65 | 109215 | 125854 9 | 27:58.05 | 5:09.19 | 125855 | 149048 10 | 33:07.24 | 3:33.16 | 149049 | 165039 11 | 36:40.40 | 3:33.35 | 165040 | 181049 12 | 40:14.00 | 2:19.46 | 181050 | 191520
Range status and errors
Selected range
Filename D:\Оркестръ Тролля [FLAC]\2015 - Турбо Ретро\2015 - Турбо Ретро [Digipak].wav
Peak level 100.0 % Extraction speed 3.8 X Range quality 100.0 % Test CRC F51976FB Copy CRC F51976FB Copy OK
No errors occurred
AccurateRip summary
Track 1 not present in databaseTrack 2 not present in databaseTrack 3 not present in databaseTrack 4 not present in databaseTrack 5 not present in databaseTrack 6 not present in databaseTrack 7 not present in databaseTrack 8 not present in databaseTrack 9 not present in databaseTrack 10 not present in databaseTrack 11 not present in databaseTrack 12 not present in database
None of the tracks are present in the AccurateRip database
End of status report
---- CUETools DB Plugin V2.1.6
[CTDB TOCID: QozpZluUYltbCeFRbLDkMJt8fWI-] foundSubmit result: already submittedTrack | CTDB Status 1 | (1/1) Accurately ripped 2 | (1/1) Accurately ripped 3 | (1/1) Accurately ripped 4 | (1/1) Accurately ripped 5 | (1/1) Accurately ripped 6 | (1/1) Accurately ripped 7 | (1/1) Accurately ripped 8 | (1/1) Accurately ripped 9 | (1/1) Accurately ripped 10 | (1/1) Accurately ripped 11 | (1/1) Accurately ripped 12 | (1/1) Accurately ripped
==== Log checksum 9A4F28C1984BC0F7177CA6F757D19EEEA516442112EA0DE520F8EDC55645000E ====

Лог проверки качества

auCDtect

-----------------------
DON'T MODIFY THIS FILE
-----------------------
PERFORMER: auCDtect Task Manager, ver. 1.6.0 RC1 build 1.6.0.1
Copyright (c) 2008-2010 y-soft. All rights reserved
http://y-soft.org
ANALYZER: auCDtect: CD records authenticity detector, version 0.8.2
Copyright (c) 2004 Oleg Berngardt. All rights reserved.
Copyright (c) 2004 Alexander Djourik. All rights reserved.
FILE: 2015 - Турбо Ретро [Digipak].flac
Size: 295665223 Hash: E4B110E8829EAB4EE648DC250084E05C Accuracy: -m0
Conclusion: CDDA 94%
Signature: E730D6B697513080615A4C4C4A7C84DF84261BD1

CUETools log

[CUETools log; Date: 06.12.2015 17:17:01; Version: 2.1.6]
[CUETools log; Date: 06.12.2015 17:17:25; Version: 2.1.6]
[CTDB TOCID: QozpZluUYltbCeFRbLDkMJt8fWI-] found.
Track | CTDB Status
1 | (1/1) Accurately ripped
2 | (1/1) Accurately ripped
3 | (1/1) Accurately ripped
4 | (1/1) Accurately ripped
5 | (1/1) Accurately ripped
6 | (1/1) Accurately ripped
7 | (1/1) Accurately ripped
8 | (1/1) Accurately ripped
9 | (1/1) Accurately ripped
10 | (1/1) Accurately ripped
11 | (1/1) Accurately ripped
12 | (1/1) Accurately ripped
[AccurateRip ID: 0012fce9-00b243f2-ab09f90c] disk not present in database.
Track Peak [ CRC32 ] [W/O NULL] [ LOG ]
-- 100,0 [F51976FB] [9A422DF0] CRC32
01 100,0 [6BEA1841] [E45FEE3A]
02 100,0 [1F5C9CAA] [83EA0299]
03 100,0 [B439148B] [280B3AD7]
04 100,0 [5D90496F] [07EE5F78]
05 100,0 [4043B71B] [6525FC84]
06 100,0 [BFADD0AA] [44E5712E]
07 100,0 [2CCD080A] [854DD04C]
08 100,0 [573AEEFF] [165EADBE]
09 100,0 [3531311B] [FF707FE0]
10 100,0 [7E1031C3] [CFA218EC]
11 100,0 [3207C36A] [E68FCCA3]
12 86,4 [DE376D84] [7EBFBBF2]

Проверка на логов на подлинность

c:\Program Files\Exact Audio Copy>CheckLog.exe "d:\Оркестръ Тролля [FLAC]\2015 -
Турбо Ретро\2015 - Турбо Ретро [Digipak].log"
Log Integrity Checker (C) 2010 by Andre Wiethoff
1. Log entry is fine!

Скриншот спектра частот

2018 - Гастроном - Диксиленд [Digipak], SAPCD 396D, 30:37

01 - Винотека [2:38]
02 - Мало Мартини [3:13]
03 - Пивной [3:08]
04 - Лето [3:04]
05 - Барная душа [3:04]
06 - Водка (Korpiklaani cover, русский) [3:16]
07 - Диксиленд, Диксиленд [2:36]
08 - Женщина, я не танцую [2:26]
09 - Горсть морошки для Санты [4:11]
10 - Водка (Korpiklaani cover, english) [3:03]

Лог создания рипа

Exact Audio Copy V1.3 from 2. September 2016
EAC extraction logfile from 15. October 2018, 14:40
Оркестръ Тролля / Гастроном-диксиленд [Digipak]
Used drive : Optiarc DVD RW AD-5240S Adapter: 1 ID: 0
Read mode : SecureUtilize accurate stream : YesDefeat audio cache : YesMake use of C2 pointers : No
Read offset correction : 48Overread into Lead-In and Lead-Out : NoFill up missing offset samples with silence : YesDelete leading and trailing silent blocks : NoNull samples used in CRC calculations : YesUsed interface : Native Win32 interface for Win NT & 2000
Used output format : User Defined EncoderSelected bitrate : 128 kBit/sQuality : HighAdd ID3 tag : NoCommand line compressor : C:\Program Files (x86)\Exact Audio Copy\Flac\flac.exeAdditional command line options : -V -8 -T "Date=%year%" -T "Genre=%genre%" %source%
TOC of the extracted CD
Track | Start | Length | Start sector | End sector --------------------------------------------------------- 1 | 0:00.00 | 2:38.00 | 0 | 11849 2 | 2:38.00 | 3:13.09 | 11850 | 26333 3 | 5:51.09 | 3:07.35 | 26334 | 40393 4 | 8:58.44 | 3:04.21 | 40394 | 54214 5 | 12:02.65 | 3:03.40 | 54215 | 67979 6 | 15:06.30 | 3:15.38 | 67980 | 82642 7 | 18:21.68 | 2:35.39 | 82643 | 94306 8 | 20:57.32 | 2:26.00 | 94307 | 105256 9 | 23:23.32 | 4:10.44 | 105257 | 124050 10 | 27:34.01 | 3:03.22 | 124051 | 137797
Range status and errors
Selected range
Filename D:\Оркестръ Тролля [FLAC]\2018 - Гастроном - Диксиленд\2018 - Гастроном-диксиленд [Digipak].wav
Peak level 98.8 % Extraction speed 3.5 X Range quality 99.9 % Test CRC 61B2D144 Copy CRC 61B2D144 Copy OK
No errors occurred
AccurateRip summary
Track 1 not present in databaseTrack 2 not present in databaseTrack 3 not present in databaseTrack 4 not present in databaseTrack 5 not present in databaseTrack 6 not present in databaseTrack 7 not present in databaseTrack 8 not present in databaseTrack 9 not present in databaseTrack 10 not present in database
None of the tracks are present in the AccurateRip database
End of status report
---- CUETools DB Plugin V2.1.6
[CTDB TOCID: OaSX5M.cqfvOgwORw_8ydi_8h4E-] foundSubmit result: already submittedTrack | CTDB Status 1 | (1/1) Accurately ripped 2 | (1/1) Accurately ripped 3 | (1/1) Accurately ripped 4 | (1/1) Accurately ripped 5 | (1/1) Accurately ripped 6 | (1/1) Accurately ripped 7 | (1/1) Accurately ripped 8 | (1/1) Accurately ripped 9 | (1/1) Accurately ripped 10 | (1/1) Accurately ripped
==== Log checksum E8C81175FC2DC257225DBDF7548D32F9F591E3377CE6B89AAD7471459292ACD7 ====

Лог проверки качества

auCDtect

-----------------------
DON'T MODIFY THIS FILE
-----------------------
PERFORMER: auCDtect Task Manager, ver. 1.6.0 RC1 build 1.6.0.1
Copyright (c) 2008-2010 y-soft. All rights reserved
http://y-soft.org
ANALYZER: auCDtect: CD records authenticity detector, version 0.8.2
Copyright (c) 2004 Oleg Berngardt. All rights reserved.
Copyright (c) 2004 Alexander Djourik. All rights reserved.
FILE: 2013 - Пивбаръ (The beer bar) [Digipak].flac
Size: 315735270 Hash: D29ADA2409AF86349096F57EC7E90C2F Accuracy: -m0
Conclusion: CDDA 100%
Signature: 15610C5FBC3D6DA6470CA4CF17D7BD0CEE4960B4

CUETools log

[CUETools log; Date: 15.10.2018 14:50:05; Version: 2.1.6]
[CTDB TOCID: OaSX5M.cqfvOgwORw_8ydi_8h4E-] found.
Track | CTDB Status
1 | (1/1) Accurately ripped
2 | (1/1) Accurately ripped
3 | (1/1) Accurately ripped
4 | (1/1) Accurately ripped
5 | (1/1) Accurately ripped
6 | (1/1) Accurately ripped
7 | (1/1) Accurately ripped
8 | (1/1) Accurately ripped
9 | (1/1) Accurately ripped
10 | (1/1) Accurately ripped
[AccurateRip ID: 000b5d7d-005b3e90-6d072d0a] disk not present in database.
Track Peak [ CRC32 ] [W/O NULL] [ LOG ]
-- 98,8 [61B2D144] [15A06F5B] CRC32
01 98,8 [6A425746] [167139BC]
02 98,8 [F4F388C1] [C35D58C7]
03 98,8 [7786EE6B] [FFEAD418]
04 98,8 [1369FC3B] [EB77FDB9]
05 98,8 [5DB0DEDC] [E8CFD40B]
06 98,8 [8BF2D03D] [61F58EE8]
07 98,8 [A76E63B4] [2B373D9E]
08 98,8 [37010E1B] [B6992525]
09 98,8 [4E792A89] [494B36E8]
10 98,8 [8A72EFB4] [F4DD84F4]

Проверка на логов на подлинность

C:\Program Files (x86)\Exact Audio Copy>CheckLog.exe "d:\Оркестръ Тролля [FLAC]\
2018 - Гастроном - Диксиленд\2018 - Гастроном-диксиленд [Digipak].log"
Log Integrity Checker (C) 2010 by Andre Wiethoff
1. Log entry is fine!

Скриншот спектра частот

[img]https://i77.fastpic.ru/big/2018/1015/5c/87f6477dfdf...53345c.png[/img]
Материал выложен ИСКЛЮЧИТЕЛЬНО в ознакомительных целях!


[torrentc.info]_t_5129172.torrent
Торрент: Зарегистрирован ·  [ 2018-10-16 22:43 ] ·  ebbc9f67315aeb717e59d7b1bb6495302dc97b24

21 KB

Статус: проверено
Скачан: 0 раз
Размер: 930 MB
Оценка: 
(Голосов: 0)
Сказали спасибо: 0  Спасибо
Похожие темы
[Профиль]    [ЛС]
Показать сообщения:    
Ответить на тему

Текущее время: Сегодня 22:41

Часовой пояс: GMT + 7



Вы не можете начинать темы
Вы не можете отвечать на сообщения
Вы не можете редактировать свои сообщения
Вы не можете удалять свои сообщения
Вы не можете голосовать в опросах
Вы не можете прикреплять файлы к сообщениям
Вы можете скачивать файлы