(Vocal Jazz) [CD] Katie Melua - Ultimate Collection - 2018, FLAC (image+.cue), lossless

Ответить на тему
Статистика раздачи [Обновить пиров]
Размер:  747 MB   |    Зарегистрирован:  1 месяц 3 дня   |    Скачан:  0 раз

Полного источника не было: Никогда

 
   
 
 
 
Автор Сообщение

torrentc.info

Создавать темы 16-Окт-2018 04:59

[Цитировать]

Katie Melua / Ultimate Collection
Жанр: Vocal Jazz
Носитель: CD
Страна-производитель диска (релиза): Германия
Год издания: 2018
Издатель (лейбл): BMG
Номер по каталогу: 538433672
Страна исполнителя (группы): UK
Аудиокодек: FLAC (*.flac)
Тип рипа: image+.cue
Битрейт аудио: lossless
Продолжительность: 02:02:28
Источник (релизер): собственный рип
Наличие сканов в содержимом раздачи: да (600dpi)
Треклист:

Треклист CD-1 time: 00:57:17

CD: Katie Melua - Ultimate Collection - CD1
01. Nine Million Bicycles [0:03:15.53]02. What A Wonderful World (with Eva Cassidy) [0:04:19.05]03. Plane Song [0:04:08.60]04. The One I Love Is Gone [0:03:39.42]05. Crawling Up A Hill [0:03:26.34]06. In My Secret Life [0:04:24.42]07. The Love I'm Frightened Of [0:03:36.23]08. Red Balloons [0:04:21.57]09. Belfast (Penguins and Cats) [0:03:22.39]10. A Time To Buy [0:03:31.61]11. What I Miss About You [0:03:49.41]12. Spider's Web (Single Version) [0:03:58.52]13. Thank You, Stars [0:03:40.03]14. I Will Be There [0:04:18.16]15. River [0:03:24.24]

Треклист CD-2 time: 01:05:11

CD: Katie Melua - Ultimate Collection - CD2
01. The Closest Thing To Crazy [0:04:13.68]02. Dreams On Fire [0:04:06.49]03. Wonderful Life [0:04:07.53]04. If You Are So Beautiful [0:03:44.56]05. Piece By Piece [0:03:24.29]06. The Little Swallow_ [0:01:45.63]07. Just Like Heaven [0:03:35.64]08. Call Off The Search [0:03:25.43]09. The Walls Of The World [0:03:25.74]10. The Flood [0:04:05.26]11. Tiger In The Night [0:03:08.42]12. I Cried For You [0:03:39.05]13. If You Were A Sailboat [0:04:02.11]14. Where Does The Ocean Go [0:03:40.12]15. Perfect World [0:04:25.26]16. Bridge Over Troubled Water [0:03:13.04]17. Diamonds Are Forever [0:03:34.43]18. Fields Of Gold [0:03:32.08]

Отчёт EAC CD-1

Exact Audio Copy V1.0 beta 3 from 29. August 2011
Отчёт EAC об извлечении, выполненном 15. октября 2018, 19:14
Katie Melua / Ultimate Collection - CD1
Дисковод: PLEXTOR DVDR PX-755A Adapter: 1 ID: 0
Режим чтения : ДостоверностьИспользование точного потока : ДаОтключение кэша аудио : ДаИспользование указателей C2 : Нет
Коррекция смещения при чтении : 30Способность читать области Lead-in и Lead-out : НетЗаполнение пропущенных сэмплов тишиной : ДаУдаление блоков с тишиной в начале и конце : НетПри вычислениях CRC использовались нулевые сэмплы : ДаИнтерфейс : Установленный внешний ASPI-интерфейс
Выходной формат : Пользовательский кодировщикВыбранный битрейт : 1024 kBit/sКачество : ВысокийДобавление ID3-тега : НетУтилита сжатия : C:\Program Files (x86)\Exact Audio Copy\Flac\flac.exeДополнительные параметры : -V -8 -T "Date=%year%" -T "Genre=%genre%" %source%
TOC извлечённого CD
Трек | Старт | Длительность | Начальный сектор | Конечный сектор --------------------------------------------------------------------- 1 | 0:00.00 | 3:15.53 | 0 | 14677 2 | 3:15.53 | 4:19.05 | 14678 | 34107 3 | 7:34.58 | 4:08.60 | 34108 | 52767 4 | 11:43.43 | 3:39.42 | 52768 | 69234 5 | 15:23.10 | 3:26.34 | 69235 | 84718 6 | 18:49.44 | 4:24.42 | 84719 | 104560 7 | 23:14.11 | 3:36.23 | 104561 | 120783 8 | 26:50.34 | 4:21.57 | 120784 | 140415 9 | 31:12.16 | 3:22.39 | 140416 | 155604 10 | 34:34.55 | 3:31.61 | 155605 | 171490 11 | 38:06.41 | 3:49.41 | 171491 | 188706 12 | 41:56.07 | 3:58.52 | 188707 | 206608 13 | 45:54.59 | 3:40.03 | 206609 | 223111 14 | 49:34.62 | 4:18.16 | 223112 | 242477 15 | 53:53.03 | 3:24.24 | 242478 | 257801
Характеристики диапазона извлечения и сообщения об ошибках
Выбранный диапазон
Имя файла E:\РАЗДАЧА\Katie Melua - Ultimate Collection - 2018\Katie Melua - Ultimate Collection - CD1.wav
Пиковый уровень 94.3 % Скорость извлечения 6.7 X Качество диапазона 100.0 % CRC теста CB20B546 CRC копии CB20B546 Копирование... OK
Ошибок не произошло
AccurateRip: сводка
Трек 1 отсутствует в базе данныхТрек 2 отсутствует в базе данныхТрек 3 отсутствует в базе данныхТрек 4 отсутствует в базе данныхТрек 5 отсутствует в базе данныхТрек 6 отсутствует в базе данныхТрек 7 отсутствует в базе данныхТрек 8 отсутствует в базе данныхТрек 9 отсутствует в базе данныхТрек 10 отсутствует в базе данныхТрек 11 отсутствует в базе данныхТрек 12 отсутствует в базе данныхТрек 13 отсутствует в базе данныхТрек 14 отсутствует в базе данныхТрек 15 отсутствует в базе данных
Ни одного трека нет в базе AccurateRip
Конец отчёта
==== Контрольная сумма отчёта 82FAF371AC4DA3724DA193421F36F088209FDE08BF0CE5FB766D9DED2FC8FA14 ====

Отчёт EAC CD-2

Exact Audio Copy V1.0 beta 3 from 29. August 2011
Отчёт EAC об извлечении, выполненном 15. октября 2018, 19:33
Katie Melua / Ultimate Collection - CD2
Дисковод: PLEXTOR DVDR PX-755A Adapter: 1 ID: 0
Режим чтения : ДостоверностьИспользование точного потока : ДаОтключение кэша аудио : ДаИспользование указателей C2 : Нет
Коррекция смещения при чтении : 30Способность читать области Lead-in и Lead-out : НетЗаполнение пропущенных сэмплов тишиной : ДаУдаление блоков с тишиной в начале и конце : НетПри вычислениях CRC использовались нулевые сэмплы : ДаИнтерфейс : Установленный внешний ASPI-интерфейс
Выходной формат : Пользовательский кодировщикВыбранный битрейт : 1024 kBit/sКачество : ВысокийДобавление ID3-тега : НетУтилита сжатия : C:\Program Files (x86)\Exact Audio Copy\Flac\flac.exeДополнительные параметры : -V -8 -T "Date=%year%" -T "Genre=%genre%" %source%
TOC извлечённого CD
Трек | Старт | Длительность | Начальный сектор | Конечный сектор --------------------------------------------------------------------- 1 | 0:00.00 | 4:13.68 | 0 | 19042 2 | 4:13.68 | 4:06.49 | 19043 | 37541 3 | 8:20.42 | 4:07.53 | 37542 | 56119 4 | 12:28.20 | 3:44.56 | 56120 | 72975 5 | 16:13.01 | 3:24.29 | 72976 | 88304 6 | 19:37.30 | 1:45.63 | 88305 | 96242 7 | 21:23.18 | 3:35.64 | 96243 | 112431 8 | 24:59.07 | 3:25.43 | 112432 | 127849 9 | 28:24.50 | 3:25.74 | 127850 | 143298 10 | 31:50.49 | 4:05.26 | 143299 | 161699 11 | 35:56.00 | 3:08.42 | 161700 | 175841 12 | 39:04.42 | 3:39.05 | 175842 | 192271 13 | 42:43.47 | 4:02.11 | 192272 | 210432 14 | 46:45.58 | 3:40.12 | 210433 | 226944 15 | 50:25.70 | 4:25.26 | 226945 | 246845 16 | 54:51.21 | 3:13.04 | 246846 | 261324 17 | 58:04.25 | 3:34.43 | 261325 | 277417 18 | 61:38.68 | 3:32.08 | 277418 | 293325
Характеристики диапазона извлечения и сообщения об ошибках
Выбранный диапазон
Имя файла E:\РАЗДАЧА\Katie Melua - Ultimate Collection - 2018\CD-2\Katie Melua - Ultimate Collection - CD2.wav
Пиковый уровень 99.9 % Скорость извлечения 8.8 X Качество диапазона 100.0 % CRC теста 1E74F78B CRC копии 1E74F78B Копирование... OK
Ошибок не произошло
AccurateRip: сводка
Трек 1 отсутствует в базе данныхТрек 2 отсутствует в базе данныхТрек 3 отсутствует в базе данныхТрек 4 отсутствует в базе данныхТрек 5 отсутствует в базе данныхТрек 6 отсутствует в базе данныхТрек 7 отсутствует в базе данныхТрек 8 отсутствует в базе данныхТрек 9 отсутствует в базе данныхТрек 10 отсутствует в базе данныхТрек 11 отсутствует в базе данныхТрек 12 отсутствует в базе данныхТрек 13 отсутствует в базе данныхТрек 14 отсутствует в базе данныхТрек 15 отсутствует в базе данныхТрек 16 отсутствует в базе данныхТрек 17 отсутствует в базе данныхТрек 18 отсутствует в базе данных
Ни одного трека нет в базе AccurateRip
Конец отчёта
==== Контрольная сумма отчёта B4117E1674F2C35139CE7B32F86CA39751AE45EBE9AC57E4D13F0E4FE702055F ====


[torrentc.info]_t_5629246.torrent
Торрент: Зарегистрирован ·  [ 2018-10-16 04:59 ] ·  29c127290a4f324a085a7aa19a7fa8cc26772791

17 KB

Статус: проверено
Скачан: 0 раз
Размер: 747 MB
Оценка: 
(Голосов: 0)
Сказали спасибо: 0  Спасибо
Похожие темы
[Профиль]    [ЛС]
Показать сообщения:    
Ответить на тему

Текущее время: Сегодня 15:21

Часовой пояс: GMT + 7



Вы не можете начинать темы
Вы не можете отвечать на сообщения
Вы не можете редактировать свои сообщения
Вы не можете удалять свои сообщения
Вы не можете голосовать в опросах
Вы не можете прикреплять файлы к сообщениям
Вы можете скачивать файлы