(Contemporary Jazz, Post-Bop) [CD] Joe Lovano & Dave Douglas Sound Prints - Scandal - 2018, FLAC (tracks+.cue), lossless

Ответить на тему
Статистика раздачи [Обновить пиров]
Размер:  413 MB   |    Зарегистрирован:  1 месяц   |    Скачан:  0 раз

Полного источника не было: Никогда

 
   
 
 
 
Автор Сообщение

torrentc.info

Создавать темы 16-Окт-2018 04:59

[Цитировать]

Joe Lovano & Dave Douglas Sound Prints - Scandal-[img=right]https://b.radikal.ru/b35/1810/1a/6e36eb5135a0.jpg[/img]
Жанр: Contemporary Jazz, Post-Bop
Носитель: CD
Год издания: 2018
Издатель (лейбл): Greenleaf Music
Номер по каталогу: CDGRE 1063
Аудиокодек: FLAC (*.flac)
Тип рипа: tracks+.cue
Битрейт аудио: lossless
Продолжительность: 01:06:36
Источник (релизер): www
Наличие сканов в содержимом раздачи: да--Joe Lovano, tenor and G mezzo soprano saxophones
Dave Douglas, trumpet
Lawrence Fields, piano
Linda May Han Oh, bass
Joey Baron, drums--

01. Dream State [05:34]
02. Full Sun [05:06]
03. Fee Fi Fo Fum [06:03]
04. Ups And Downs [06:57]
05. The Corner Tavern [06:50]
06. Scandal [05:51]
07. Juju [09:05]
08. Mission Creep [06:18]
09. Full Moon [08:06]
10. High Noon [02:26]
11. Libra [04:16]--

Лог создания рипа

Exact Audio Copy V1.1 from 23. June 2015
EAC extraction logfile from 24. May 2018, 7:59
Joe Lovano / Scandal
Used drive : MATSHITADVD+-RW SW830 Adapter: 1 ID: 0
Read mode : SecureUtilize accurate stream : YesDefeat audio cache : YesMake use of C2 pointers : No
Read offset correction : 6Overread into Lead-In and Lead-Out : NoFill up missing offset samples with silence : YesDelete leading and trailing silent blocks : NoNull samples used in CRC calculations : YesUsed interface : Native Win32 interface for Win NT & 2000Gap handling : Appended to previous track
Used output format : User Defined EncoderSelected bitrate : 896 kBit/sQuality : HighAdd ID3 tag : NoCommand line compressor : C:\Program Files (x86)\Exact Audio Copy\Flac\flac.exeAdditional command line options : -8 -V -T "ARTIST=%artist%" -T "TITLE=%title%" -T "ALBUM=%albumtitle%" -T "DATE=%year%" -T "TRACKNUMBER=%tracknr%" -T "TOTALTRACKS=%numtracks%" -T "GENRE=%genre%" -T "ALBUMARTIST=%albumartist%" -T "ALBUM ARTIST=%albumartist%" -T "COMMENT=EAC Secure Mode, Test & Copy, AccurateRip, FLAC -8" %source%
TOC of the extracted CD
Track | Start | Length | Start sector | End sector --------------------------------------------------------- 1 | 0:00.00 | 5:34.28 | 0 | 25077 2 | 5:34.28 | 5:06.43 | 25078 | 48070 3 | 10:40.71 | 6:03.23 | 48071 | 75318 4 | 16:44.19 | 6:57.20 | 75319 | 106613 5 | 23:41.39 | 6:50.22 | 106614 | 137385 6 | 30:31.61 | 5:51.63 | 137386 | 163773 7 | 36:23.49 | 9:05.10 | 163774 | 204658 8 | 45:28.59 | 6:18.41 | 204659 | 233049 9 | 51:47.25 | 8:06.29 | 233050 | 269528 10 | 59:53.54 | 2:26.28 | 269529 | 280506 11 | 62:20.07 | 4:16.03 | 280507 | 299709
Track 1
Filename G:\New Rips\Joe Lovano - Scandal (2018) [FLAC]\01 - Dream State.wav
Pre-gap length 0:00:02.00
Peak level 97.7 % Extraction speed 4.5 X Track quality 100.0 % Test CRC 4D2220DA Copy CRC 4D2220DA Track not present in AccurateRip database Copy OK
Track 2
Filename G:\New Rips\Joe Lovano - Scandal (2018) [FLAC]\02 - Full Sun.wav
Peak level 97.2 % Extraction speed 5.0 X Track quality 100.0 % Test CRC 443A2EF6 Copy CRC 443A2EF6 Track not present in AccurateRip database Copy OK
Track 3
Filename G:\New Rips\Joe Lovano - Scandal (2018) [FLAC]\03 - Fee Fi Fo Fum.wav
Peak level 100.0 % Extraction speed 5.7 X Track quality 100.0 % Test CRC FCCDFF57 Copy CRC FCCDFF57 Track not present in AccurateRip database Copy OK
Track 4
Filename G:\New Rips\Joe Lovano - Scandal (2018) [FLAC]\04 - Ups And Downs.wav
Peak level 96.3 % Extraction speed 6.3 X Track quality 100.0 % Test CRC 432FF3E4 Copy CRC 432FF3E4 Track not present in AccurateRip database Copy OK
Track 5
Filename G:\New Rips\Joe Lovano - Scandal (2018) [FLAC]\05 - The Corner Tavern.wav
Peak level 95.8 % Extraction speed 6.8 X Track quality 100.0 % Test CRC 11219ED5 Copy CRC 11219ED5 Track not present in AccurateRip database Copy OK
Track 6
Filename G:\New Rips\Joe Lovano - Scandal (2018) [FLAC]\06 - Scandal.wav
Peak level 95.3 % Extraction speed 7.2 X Track quality 100.0 % Test CRC 1C03FB9A Copy CRC 1C03FB9A Track not present in AccurateRip database Copy OK
Track 7
Filename G:\New Rips\Joe Lovano - Scandal (2018) [FLAC]\07 - Juju.wav
Peak level 95.6 % Extraction speed 7.2 X Track quality 99.9 % Test CRC 72923A46 Copy CRC 72923A46 Track not present in AccurateRip database Copy OK
Track 8
Filename G:\New Rips\Joe Lovano - Scandal (2018) [FLAC]\08 - Mission Creep.wav
Peak level 97.5 % Extraction speed 8.3 X Track quality 100.0 % Test CRC E7CB8117 Copy CRC E7CB8117 Track not present in AccurateRip database Copy OK
Track 9
Filename G:\New Rips\Joe Lovano - Scandal (2018) [FLAC]\09 - Full Moon.wav
Peak level 96.9 % Extraction speed 7.8 X Track quality 99.9 % Test CRC 7F02E4F7 Copy CRC 7F02E4F7 Track not present in AccurateRip database Copy OK
Track 10
Filename G:\New Rips\Joe Lovano - Scandal (2018) [FLAC]\10 - High Noon.wav
Peak level 97.8 % Extraction speed 7.7 X Track quality 100.0 % Test CRC 60CFA5A6 Copy CRC 60CFA5A6 Track not present in AccurateRip database Copy OK
Track 11
Filename G:\New Rips\Joe Lovano - Scandal (2018) [FLAC]\11 - Libra.wav
Peak level 91.9 % Extraction speed 8.8 X Track quality 100.0 % Test CRC 6E8959EE Copy CRC 6E8959EE Track not present in AccurateRip database Copy OK
None of the tracks are present in the AccurateRip database
No errors occurred
End of status report
---- CUETools DB Plugin V2.1.6
[CTDB TOCID: OrRmGyLeu.OUxjkwwTFxwr2Wco8-] foundSubmit result: OrRmGyLeu.OUxjkwwTFxwr2Wco8- has been confirmedTrack | CTDB Status 1 | (4/4) Accurately ripped 2 | (4/4) Accurately ripped 3 | (4/4) Accurately ripped 4 | (4/4) Accurately ripped 5 | (4/4) Accurately ripped 6 | (4/4) Accurately ripped 7 | (4/4) Accurately ripped 8 | (4/4) Accurately ripped 9 | (4/4) Accurately ripped 10 | (4/4) Accurately ripped 11 | (4/4) Accurately ripped
==== Log checksum F1A51C5458141271C148989A9F5E9DB5E577211BB83D728D553CCDD99158D3D0 ====

Содержание индексной карты (.CUE)

REM GENRE JazzREM DATE 2018REM DISCID 890F9C0BREM COMMENT "ExactAudioCopy v1.1"PERFORMER "Joe Lovano"TITLE "Scandal"FILE "01 - Dream State.wav" WAVE TRACK 01 AUDIO TITLE "Dream State" PERFORMER "Joe Lovano" INDEX 01 00:00:00FILE "02 - Full Sun.wav" WAVE TRACK 02 AUDIO TITLE "Full Sun" PERFORMER "Joe Lovano" INDEX 01 00:00:00FILE "03 - Fee Fi Fo Fum.wav" WAVE TRACK 03 AUDIO TITLE "Fee Fi Fo Fum" PERFORMER "Joe Lovano" INDEX 01 00:00:00FILE "04 - Ups And Downs.wav" WAVE TRACK 04 AUDIO TITLE "Ups And Downs" PERFORMER "Joe Lovano" INDEX 01 00:00:00FILE "05 - The Corner Tavern.wav" WAVE TRACK 05 AUDIO TITLE "The Corner Tavern" PERFORMER "Joe Lovano" INDEX 01 00:00:00FILE "06 - Scandal.wav" WAVE TRACK 06 AUDIO TITLE "Scandal" PERFORMER "Joe Lovano" INDEX 01 00:00:00FILE "07 - Juju.wav" WAVE TRACK 07 AUDIO TITLE "Juju" PERFORMER "Joe Lovano" INDEX 01 00:00:00FILE "08 - Mission Creep.wav" WAVE TRACK 08 AUDIO TITLE "Mission Creep" PERFORMER "Joe Lovano" INDEX 01 00:00:00FILE "09 - Full Moon.wav" WAVE TRACK 09 AUDIO TITLE "Full Moon" PERFORMER "Joe Lovano" INDEX 01 00:00:00FILE "10 - High Noon.wav" WAVE TRACK 10 AUDIO TITLE "High Noon" PERFORMER "Joe Lovano" INDEX 01 00:00:00FILE "11 - Libra.wav" WAVE TRACK 11 AUDIO TITLE "Libra" PERFORMER "Joe Lovano" INDEX 01 00:00:00


[torrentc.info]_t_5629202.torrent
Торрент: Зарегистрирован ·  [ 2018-10-16 04:59 ] ·  ec0f83a14350a5d3ec424eb92250338aac5b4c8f

18 KB

Статус: проверено
Скачан: 0 раз
Размер: 413 MB
Оценка: 
(Голосов: 0)
Сказали спасибо: 0  Спасибо
Похожие темы
[Профиль]    [ЛС]
Показать сообщения:    
Ответить на тему

Текущее время: Сегодня 11:41

Часовой пояс: GMT + 7



Вы не можете начинать темы
Вы не можете отвечать на сообщения
Вы не можете редактировать свои сообщения
Вы не можете удалять свои сообщения
Вы не можете голосовать в опросах
Вы не можете прикреплять файлы к сообщениям
Вы можете скачивать файлы