Честная куртизанка / Dangerous Beauty (Маршалл Херсковиц / Marshall Herskovitz) [1998, США, Драма, Мелодрама, HDTVRip] AVO (Александр Кашкин - Первомайский)

Ответить на тему
Статистика раздачи [Обновить пиров]
Размер:  1.45 GB   |    Зарегистрирован:  1 месяц 4 дня   |    Скачан:  0 раз

Полного источника не было: Никогда

 
   
 
 
 
Автор Сообщение

torrentc.info

Создавать темы 15-Окт-2018 22:45

[Цитировать]

Честная куртизанка / Dangerous Beauty
Страна: США
Жанр: Драма, Мелодрама
Год выхода: 1998
Продолжительность: 01:51:39
Перевод: Авторский (одноголосый закадровый) (Александр Кашкин - Первомайский)
Субтитры: нет
Режиссер: Маршалл Херсковиц / Marshall Herskovitz
В ролях: Катрин МакКормак
Руфус Сьюэлл
Оливер Платт
Жаклин Биссет
Фред Уорд
Наоми Уоттс
Мойра Келли
Джоанна Кэссиди
Дэниэл Лапэйн
Ерун Краббе
Описание: Венеция, 1583 год. Юная, красивая, умная, но бедная Вероника Франко влюбляется в аристократа Марко, брата своей подруги, только что вернувшегося из Рима. Он тоже неравнодушен к девушке, но его отец считает, что их брак невозможен, так как у Вероники нет приданого. Мать Вероники, в молодости бывшая куртизанкой, пытается убедить дочь в необходимости обратиться к древнейшей профессии, потому что семье угрожает бедность.
Доп. информация: Звуковая дорожка снята и синхронизирована мною с VHS
Видеоряд найден в сети
Сэмпл: https://yadi.sk/i/8IzapjUGR9nzWA
Качество видео: HDTVRip
Формат файла: AVI
Видео: XviD , 720x304 (2.37:1), 23.976 fps, 1 656 Kbps
Аудио: AC3 , 48 kHz , 192.00 kbps avg , 2/0 (L,R) ch

MediaInfo

Complete name Честная Куртизанка 1998(Kashkin).aviFormat : AVIFormat/Info : Audio Video InterleaveFile size : 1.45 GiBDuration : 1h 51mnOverall bit rate : 1 857 KbpsWriting application : VirtualDubMod 1.5.10.3 | www.virtualdub-fr.org || (build 2550/release)Writing library : VirtualDub build 35491/release
VideoID : 0Format : MPEG-4 VisualFormat profile : Advanced Simple@L5Format settings, BVOP : 1Format settings, QPel : NoFormat settings, GMC : No warppointsFormat settings, Matrix : CustomCodec ID : XVIDCodec ID/Hint : XviDDuration : 1h 51mnBit rate : 1 656 KbpsWidth : 720 pixelsHeight : 304 pixelsDisplay aspect ratio : 2.35:1Frame rate : 23.976 (23976/1000) fpsColor space : YUVChroma subsampling : 4:2:0Bit depth : 8 bitsScan type : ProgressiveCompression mode : LossyBits/(Pixel*Frame) : 0.316Stream size : 1.29 GiB (89%)Writing library : XviD 73
AudioID : 1Format : AC-3Format/Info : Audio Coding 3Mode extension : CM (complete main)Format settings, Endianness : BigCodec ID : 2000Duration : 1h 51mnBit rate mode : ConstantBit rate : 192 KbpsChannel(s) : 2 channelsChannel positions : Front: L RSampling rate : 48.0 KHzFrame rate : 31.250 fps (1536 spf)Compression mode : LossyStream size : 153 MiB (10%)Alignment : Aligned on interleavesInterleave, duration : 42 ms (1.00 video frame)Interleave, preload duratio : 512 ms

Скриншоты



[torrentc.info]_t_5628994.torrent
Торрент: Зарегистрирован ·  [ 2018-10-15 22:44 ] ·  a4e0a48becfdb7991d55da4a67f30305c8718e89

15 KB

Статус: проверено
Скачан: 0 раз
Размер: 1.45 GB
Оценка: 
(Голосов: 0)
Сказали спасибо: 0  Спасибо
Похожие темы
[Профиль]    [ЛС]
Показать сообщения:    
Ответить на тему

Текущее время: Сегодня 22:45

Часовой пояс: GMT + 7



Вы не можете начинать темы
Вы не можете отвечать на сообщения
Вы не можете редактировать свои сообщения
Вы не можете удалять свои сообщения
Вы не можете голосовать в опросах
Вы не можете прикреплять файлы к сообщениям
Вы можете скачивать файлы